BitTorrentTracker PerecTracker.org
BitTorrentTracker PerecTracker.org
    
Регистрация  ·  Вход
 
 · 
Забыли пароль?

  • Исключенный / Expelled (Алекс Гойетт / Alex Goyette) [2014, США, комедия, WEB-DLRip] VO (Виктор Береговых) + Sub Rus + Original Eng

    Ответить на тему
     
    Автор Сообщение

    Light

    Создавать темы 12-Мар-2015 21:43

           

    [Цитировать]

    Исключенный / Expelled
    Страна: США
    Жанр: комедия
    Год выпуска: 2014
    Продолжительность: 01:25:50
    Перевод: Одноголосый закадровый (Виктор Береговых) - по переводу Михаила Васильева
    Cубтитры: русские
    Оригинальная аудиодорожка: английский
    Режиссер: Алекс Гойетт / Alex Goyette
    В ролях: Кэмерон Даллас, Маркус Джонс, Рене Мишель Аранда, Тила Данн
    Описание: Феликс О'Нил ходит в школу с единственной целью - развлекаться. Когда его проделки достают директора, Феликса с позором изгоняют из учебного заведения. Теперь его главная задача: сделать все, чтобы родители не узнали о его исключении...
    Доп. информация: фильм должен был выпускать Дисней, но в последний момент режиссер (он же автор сценария) не устоял перед более выгодным предложением от Фокс и убежал к студии-конкуренту.
    Но тень Диснея - главного специалиста по стерильным развлечением для всей семьи - витает над картиной. Это умилительно-юмористическая сказка снятая в ситкомовской стилистике.
    Режиссер боялся бирки "годится для любого возраста" и добавил в лексикон персонажей слово "[цензура]", так что фильм вышел с заслуженным рейтингом "12+" (комментарий от переводчика)
    Сэмпл: https://www.sendspace.com/file/cbxon1
    Качество видео: WEB-DLRip
    Формат видео: AVI
    Видео: XviD, 720x400 (16:9), 23.976 fps, 1916 kbps avg, 0.278 bit/pixel
    Аудио: AC3, 48.0 KHz, 192 Kbps, 2 channels (русский)
    Аудио 2: AC3, 48.0 KHz, 192 Kbps, 2 channels (английский)
    Формат субтитров: softsub (SRT)

    MediaInfo

    Format : AVI
    Format/Info : Audio Video Interleave
    File size : 1.39 GiB
    Duration : 1h 25mn
    Overall bit rate : 2 315 Kbps
    Writing application : VirtualDubMod 1.5.10.2 (build 2540/release)
    Writing library : VirtualDubMod build 2540/release
    Video
    ID : 0
    Format : MPEG-4 Visual
    Format profile : AdvancedSimple@L5
    Format settings, BVOP : Yes
    Format settings, QPel : No
    Format settings, GMC : No warppoints
    Format settings, Matrix : Default (H.263)
    Codec ID : XVID
    Codec ID/Hint : XviD
    Duration : 1h 25mn
    Bit rate : 1 916 Kbps
    Width : 720 pixels
    Height : 400 pixels
    Display aspect ratio : 16:9
    Frame rate : 23.976 fps
    Resolution : 24 bits
    Colorimetry : 4:2:0
    Scan type : Progressive
    Bits/(Pixel*Frame) : 0.278
    Stream size : 1.15 GiB (83%)
    Writing library : XviD 1.2.1 (UTC 2008-12-04)
    Audio #1
    ID : 1
    Format : AC-3
    Format/Info : Audio Coding 3
    Codec ID : 2000
    Duration : 1h 25mn
    Bit rate mode : Constant
    Bit rate : 192 Kbps
    Channel(s) : 2 channels
    Channel positions : L R
    Sampling rate : 48.0 KHz
    Stream size : 118 MiB (8%)
    Alignment : Split accross interleaves
    Interleave, duration : 42 ms (1.00 video frame)
    Interleave, preload duration : 500 ms
    Audio #2
    ID : 2
    Format : AC-3
    Format/Info : Audio Coding 3
    Codec ID : 2000
    Duration : 1h 25mn
    Bit rate mode : Constant
    Bit rate : 192 Kbps
    Channel(s) : 2 channels
    Channel positions : L R
    Sampling rate : 48.0 KHz
    Stream size : 118 MiB (8%)
    Alignment : Split accross interleaves
    Interleave, duration : 42 ms (1.00 video frame)
    Interleave, preload duration : 500 ms

    Скриншот c названием фильма

    Скриншоты

    Пример субтитров

    45
    00:04:22,463 --> 00:04:24,463
    Я всю жизнь ломал голову,
    как избавиться от школы,
    46
    00:04:24,465 --> 00:04:27,466
    а в итоге школа
    избавилась от меня.
    47
    00:04:27,468 --> 00:04:29,735
    Сейчас директор будет
    звонить маме,
    48
    00:04:29,737 --> 00:04:30,836
    чтобы сказать,
    что я исключен.
    49
    00:04:35,308 --> 00:04:38,043
    Нельзя этого допустить.
    50
    00:04:43,783 --> 00:04:46,718
    Пожарная тревога
    дает мне где-то 11 минут форы.
    51
    00:04:46,720 --> 00:04:49,454
    Ну, или 10.
    52
    00:04:51,524 --> 00:04:53,058
    Феликс.
    53
    00:04:53,060 --> 00:04:55,027
    Привет, Дэнни.
    54
    00:04:55,029 --> 00:04:56,695
    Это ты врубил
    сигнализацию?
    55
    00:04:56,697 --> 00:04:58,563
    Конечно. Я тебе помешал?
    56
    00:04:58,565 --> 00:04:59,965
    Ты спас меня
    от контрольной.
    57
    00:04:59,967 --> 00:05:01,867
    Я гений.
    58
    00:05:01,869 --> 00:05:03,468
    Слышал, тебя директор
    вызывал.
    59
    00:05:03,470 --> 00:05:05,304
    Меня исключили.
    60
    00:05:05,306 --> 00:05:06,672
    Серьезно?
    61
    00:05:06,674 --> 00:05:08,040
    Родители тебя уроют.
    62
    00:05:08,042 --> 00:05:10,742
    Только если узнают,
    а они не узнают.
    63
    00:05:10,744 --> 00:05:13,312
    - Как это?
    - Скоро узнаешь.
    64
    00:05:13,314 --> 00:05:15,747
    Мне срочно домой.
    Важный телефонный разговор.
    65
    00:05:15,749 --> 00:05:18,350
    Ты чокнутый.
    66
    00:05:28,528 --> 00:05:29,861
    Я сделал так,
    67
    00:05:29,863 --> 00:05:31,863
    что все звонки из школы
    идут на мой номер.
    68
    00:05:31,865 --> 00:05:33,965
    Так, что когда
    директор позвонит...
    69
    00:05:35,769 --> 00:05:38,337
    Так, надо ответить.
    70
    00:05:40,907 --> 00:05:43,475
    Алло.
    Скачать .torrent

    Скачать торрент-файл бесплатно и на максимальной скорости!

    Как скачивать? · Что такое торрент? · Рейтинг и ограничения

    !ВНИМАНИЕ!
    Сайт не распространяет и не хранит электронные версии произведений, а занимается лишь лишь предоставлением доступа к создаваемому пользователями каталогу ссылок на торрент-файлы, которые содержат только списки хеш-сумм, убедительная просьба с жалобами обращаться напрямую к пользователю. Файлы для обмена на трекере предоставлены пользователями сайта, и администрация не несёт ответственности за их содержание. Просьба не заливать файлы, защищенные авторскими правами, а также файлы нелегального содержания!


    _________________
    [Профиль] [ЛС]
    Показать сообщения:    
    Ответить на тему

    Текущее время: Сегодня, в 14:45

    Часовой пояс: GMT + 2



    Вы не можете начинать темы
    Вы не можете отвечать на сообщения
    Вы не можете редактировать свои сообщения
    Вы не можете удалять свои сообщения
    Вы не можете голосовать в опросах
    Вы не можете прикреплять файлы к сообщениям
    Вы не можете скачивать файлы