BitTorrentTracker PerecTracker.org
BitTorrentTracker PerecTracker.org
    
Регистрация  ·  Вход
 
 · 
Забыли пароль?

  • Страховщик / Autómata (Габе Ибаньес / Gabe Ibáñez) [2014, Испания, Фантастика, триллер, BDRip] AVO (Визгунов)

    Ответить на тему
     
    Автор Сообщение

    Light

    Создавать темы 12-Мар-2015 04:55

           

    [Цитировать]

    Страховщик / Autómata
    «Ваше время подошло к концу. Наше только начинается»
    -Год выпуска: 2014
    Выпущено: Испания, Болгария / Green Moon
    Жанр: фантастика, триллер
    Продолжительность: 01:49:54
    Перевод: Авторский (одноголосый закадровый) Сергей Визгунов
    Субтитры: нет-Режиссер:
    Габе Ибаньес / Gabe Ibáñez-В ролях:
    Антонио Бандерас, Биргитта Йорт Сёренсен, Мелани Гриффит, Дилан МакДермотт, Роберт Форстер, Тим МакИннерни, Энди Найман, Дэвид Райалл, Эндрю Тирнан, Криста Кэмпбелл-Описание:
    2044 год. После природной катастрофы население Земли уменьшилось до 21 миллиона человек. Большую часть суши теперь занимает радиоактивная пустыня, а выжившие скрываются в городах за высокими стенами и искусственными облаками, которые созданы с помощью роботов — Пилигримов. Компания ROC изготавливает роботов, которые поддерживают существование оставшихся городов. Роботы снабжены защитным механизмом, который не позволяет им наносить вред людям. После одного инцидента страховщик Жак Вокан начинает подозревать, что роботы научились изменять себя.-Релиз групп | | IMDB | КиноПоиск | Сэмпл |-Тип релиза: BDRip [BDRemux | 1080p | Кинозал]
    Контейнер: AVI
    Видео: 720x304 (2.37:1), 23.976 fps, XviD build 73 ~1381 kbps avg, 0.26 bit/pixel
    Аудио: 48 kHz, AC3 Dolby Digital, 3/2 (L,C,R,l,r) + LFE ch, ~384.00 kbps avg
    -

    Скриншоты

    MediaInfo

    General
    Complete name                            : D:\Strahovschik_2014_BDRip_AVO_by_Dalemake.avi
    Format                                   : AVI
    Format/Info                              : Audio Video Interleave
    File size                                : 1.36 GiB
    Duration                                 : 1h 49mn
    Overall bit rate                         : 1 775 Kbps
    Writing application                      : VirtualDubMod 1.5.10.3 | www.virtualdub-fr.org || (build 2550/release)
    Writing library                          : VirtualDubMod build 2550/release
    Video
    ID                                       : 0
    Format                                   : MPEG-4 Visual
    Format profile                           : Advanced Simple@L5
    Format settings, BVOP                    : 1
    Format settings, QPel                    : No
    Format settings, GMC                     : No warppoints
    Format settings, Matrix                  : Custom
    Codec ID                                 : XVID
    Codec ID/Hint                            : XviD
    Duration                                 : 1h 49mn
    Bit rate                                 : 1 381 Kbps
    Width                                    : 720 pixels
    Height                                   : 304 pixels
    Display aspect ratio                     : 2.35:1
    Frame rate                               : 23.976 fps
    Color space                              : YUV
    Chroma subsampling                       : 4:2:0
    Bit depth                                : 8 bits
    Scan type                                : Progressive
    Compression mode                         : Lossy
    Bits/(Pixel*Frame)                       : 0.263
    Stream size                              : 1.06 GiB (78%)
    Writing library                          : XviD 73
    Audio
    ID                                       : 1
    Format                                   : AC-3
    Format/Info                              : Audio Coding 3
    Mode extension                           : CM (complete main)
    Format settings, Endianness              : Big
    Codec ID                                 : 2000
    Duration                                 : 1h 49mn
    Bit rate mode                            : Constant
    Bit rate                                 : 384 Kbps
    Channel(s)                               : 6 channels
    Channel positions                        : Front: L C R, Side: L R, LFE
    Sampling rate                            : 48.0 KHz
    Bit depth                                : 16 bits
    Compression mode                         : Lossy
    Stream size                              : 302 MiB (22%)
    Alignment                                : Split accross interleaves
    Interleave, duration                     : 42 ms (1.00 video frame)
    Interleave, preload duration             : 500 ms
    -
    Скачать .torrent

    Скачать торрент-файл бесплатно и на максимальной скорости!

    Как скачивать? · Что такое торрент? · Рейтинг и ограничения

    !ВНИМАНИЕ!
    Сайт не распространяет и не хранит электронные версии произведений, а занимается лишь лишь предоставлением доступа к создаваемому пользователями каталогу ссылок на торрент-файлы, которые содержат только списки хеш-сумм, убедительная просьба с жалобами обращаться напрямую к пользователю. Файлы для обмена на трекере предоставлены пользователями сайта, и администрация не несёт ответственности за их содержание. Просьба не заливать файлы, защищенные авторскими правами, а также файлы нелегального содержания!


    _________________
    [Профиль] [ЛС]
    Показать сообщения:    
    Ответить на тему

    Текущее время: Сегодня, в 18:31

    Часовой пояс: GMT + 2



    Вы не можете начинать темы
    Вы не можете отвечать на сообщения
    Вы не можете редактировать свои сообщения
    Вы не можете удалять свои сообщения
    Вы не можете голосовать в опросах
    Вы не можете прикреплять файлы к сообщениям
    Вы не можете скачивать файлы