BitTorrentTracker PerecTracker.org
BitTorrentTracker PerecTracker.org
    
Регистрация  ·  Вход
 
 · 
Забыли пароль?

  • Моя вина / Расплата / Mea culpa (Фред Кавайе / Fred Cavayé) [2014, Франция, боевик, триллер, BDRip] MVO

    Ответить на тему
     
    Автор Сообщение

    Light

    Создавать темы 12-Мар-2015 04:55

           

    [Цитировать]

    Моя вина / Mea culpa
    Год выпуска: 2014
    Страна: Франция
    Жанр: боевик, триллер
    Продолжительность: 01:30:20
    Перевод: Профессиональный (многоголосый, закадровый)
    Субтитры: нет
    Режиссер: Фред Кавайе / Fred Cavayé
    В ролях: Венсан Линдон (Simon), Жиль Леллуш (Franck Vasseur), Надин Лабаки (Alice), Жиль Коэн (Pastor), Макс Бесетт де Малглейв (Théo), Меди Садун (Jacquet), Велибор Топич (Milan), Сириль Леконт (Jean-Marc), Жиль Белломи (Andrei), Саша Петронижевич (Pietr), Пьер Бенуа (Boris), Алексис Маненти (Slobodan)-Мировая премьера: 5 февраля 2014-Описание: Франк и Симон напарники полицейские из Тулона. После трагической аварии Симон теряет всё: свою семейную жизнь, свою работу полицейского. Франк выходит сухим из воды.
    Шесть лет спустя под угрозой оказывается ставший случайным свидетелем преступления сын Симона Тео. Бывший полицейский готов на всё, чтобы защитить свою семью. Но для этого ему ему предстоит объединиться со своим бывшим напарником Франком.
    -Рейтинг
    kinopoisk.ru: 6.079 (355)
    imdb.com: 6.00 (955)
    MPAA: R - Лицам до 17 лет обязательно присутствие взрослого
    -Качество: BDRip (Исходник: Blu-Ray Disk)
    Формат: AVI //SAMPLE//
    Видео: 720x304 (2.37:1), 24 fps, XviD build 66 ~1916 kbps avg, 0.36 bit/pixel
    Аудио: 48 kHz, AC3 Dolby Digital, 3/2 (L,C,R,l,r) + LFE ch, ~384 kbps

    MediaInfo

    Общее
    Полное имя : F:\Video\AVI\Films\Moja.Vina.2014.RUS.BDRip.XviD.AC3.-AllFilms.avi
    Формат : AVI
    Формат/Информация : Audio Video Interleave
    Размер файла : 1,46 Гбайт
    Продолжительность : 1 ч. 30 м.
    Общий поток : 2310 Кбит/сек
    Название фильма : Расплата / Моя вина / Mea culpa (2014)
    Режиссёр : Shevon (Blu-Ray Disk)
    Программа кодирования : VirtualDubMod 1.5.10.3 | www.virtualdub-fr.org || (build 2550/release)
    Правообладатель : AllFilms (rutracker.org)
    Видео
    Идентификатор : 0
    Формат : MPEG-4 Visual
    Профиль формата : Advanced Simple@L5
    Параметр BVOP формата : 1
    Параметр QPel формата : Нет
    Параметр GMC формата : Без точки перехода
    Параметр матрицы формата : Выборочная
    Идентификатор кодека : XVID
    Идентификатор кодека/Подсказка : XviD
    Продолжительность : 1 ч. 30 м.
    Битрейт : 1917 Кбит/сек
    Ширина : 720 пикселей
    Высота : 304 пикселя
    Соотношение сторон : 2,35:1
    Частота кадров : 24,000 кадра/сек
    Цветовое пространство : YUV
    Субдискретизация насыщенности : 4:2:0
    Битовая глубина : 8 бит
    Тип развёртки : Прогрессивная
    Метод сжатия : С потерями
    Бит/(Пиксели*Кадры) : 0.365
    Размер потока : 1,21 Гбайт (83%)
    Библиотека кодирования : XviD 66
    Аудио
    Идентификатор : 1
    Формат : AC-3
    Формат/Информация : Audio Coding 3
    Расширение режима : CM (complete main)
    Параметр Endianness формата : Big
    Идентификатор кодека : 2000
    Продолжительность : 1 ч. 30 м.
    Вид битрейта : Постоянный
    Битрейт : 384 Кбит/сек
    Каналы : 6 каналов
    Расположение каналов : Front: L C R, Side: L R, LFE
    Частота : 48,0 КГц
    Битовая глубина : 16 бит
    Метод сжатия : С потерями
    Размер потока : 248 Мбайт (17%)
    Выравнивание : Разделение по промежуткам
    Продолжительность промежутка : 42 мс. (1,00 видеокадр)
    Время предзагрузки промежутка : 500 мс.

    Скриншоты


    -

    Сравнение

    http://screenshotcomparison.com/comparison/115637/ ==>> http://perectracker.org/viewtopic.php?t=4942484
    Со звуком тоже получше, хотя не айс..
    Скачать .torrent

    Скачать торрент-файл бесплатно и на максимальной скорости!

    Как скачивать? · Что такое торрент? · Рейтинг и ограничения

    !ВНИМАНИЕ!
    Сайт не распространяет и не хранит электронные версии произведений, а занимается лишь лишь предоставлением доступа к создаваемому пользователями каталогу ссылок на торрент-файлы, которые содержат только списки хеш-сумм, убедительная просьба с жалобами обращаться напрямую к пользователю. Файлы для обмена на трекере предоставлены пользователями сайта, и администрация не несёт ответственности за их содержание. Просьба не заливать файлы, защищенные авторскими правами, а также файлы нелегального содержания!


    _________________
    [Профиль] [ЛС]
    Показать сообщения:    
    Ответить на тему

    Текущее время: Сегодня, в 22:22

    Часовой пояс: GMT + 2



    Вы не можете начинать темы
    Вы не можете отвечать на сообщения
    Вы не можете редактировать свои сообщения
    Вы не можете удалять свои сообщения
    Вы не можете голосовать в опросах
    Вы не можете прикреплять файлы к сообщениям
    Вы не можете скачивать файлы