BitTorrentTracker PerecTracker.org
BitTorrentTracker PerecTracker.org
    
Регистрация  ·  Вход
 
 · 
Забыли пароль?

  • Гибрид / Искра / The Gybrid / Scintilla (Билли О`Брайэн / Billy O\'Brien) [2014, Великобритания, фантастика, WEB-DLRip] VO (Хихидок)

    Ответить на тему
     
    Автор Сообщение

    Light

    Создавать темы 11-Мар-2015 20:31

           

    [Цитировать]

    Гибрид / Искра / The Gybrid / Scintilla
    Страна: Великобритания
    Жанр: фантастика
    Год выпуска: 2014
    Продолжительность: 01:34:12
    Перевод: Одноголосый закадровый Хихидок
    Cубтитры: нет
    Режиссер: Билли О`Брайэн / Billy O'Brien
    В ролях: Джон Линч, Морьяна Алауи, Крэйг Конуэй, Антония Томас, Джумэйн Хантер, Бет Уинслет, Нед Деннехи, Перри Хэнсон, Эдвард Доглиани
    Описание: Элитная команда наемников выбрана для проведения тайной операции в бывшей советской республике. Сначала они должны сразиться со свирепыми вооруженными ополченцами, чтобы пробиться к спуску в подземный лабиринт, населенный страшными монстрами — плодом скрещивания ДНК человека из инопланетян.

    Дополнительная информация: Внимание ! В фильме присутствуют нецензурные слова (Хихидок вроде одно насчитал)
    Качество видео: WEB-DLRip
    Формат видео: AVI
    Видео: 720x304 (2.37:1), 24 fps, XviD MPEG-4 ~1719 kbps avg, 0.33 bit/pixel
    Аудио 1: 44.1 kHz, AC3 Dolby Digital, 2/0 (L,R) ch, ~192 kbps [Russian]
    Аудио 2: 48 kHz, AC3 Dolby Digital, 2/0 (L,R) ch, ~192 kbps [English]

    MediaInfo

    General
    Complete name : E:\Films\New\Scintilla.2014.avi
    Format : AVI
    Format/Info : Audio Video Interleave
    File size : 1.39 GiB
    Duration : 1h 34mn
    Overall bit rate : 2 118 Kbps
    Writing application : VirtualDubMod 1.5.10.2 (build 2540/release)
    Writing library : VirtualDubMod build 2540/release
    Video
    ID : 0
    Format : MPEG-4 Visual
    Format profile : Advanced Simple@L5
    Format settings, BVOP : 2
    Format settings, QPel : No
    Format settings, GMC : No warppoints
    Format settings, Matrix : Default (H.263)
    Muxing mode : Packed bitstream
    Codec ID : XVID
    Codec ID/Hint : XviD
    Duration : 1h 34mn
    Bit rate : 1 720 Kbps
    Width : 720 pixels
    Height : 304 pixels
    Display aspect ratio : 2.35:1
    Frame rate : 24.000 fps
    Color space : YUV
    Chroma subsampling : 4:2:0
    Bit depth : 8 bits
    Scan type : Progressive
    Compression mode : Lossy
    Bits/(Pixel*Frame) : 0.327
    Stream size : 1.13 GiB (81%)
    Writing library : XviD 64
    Audio #1
    ID : 1
    Format : AC-3
    Format/Info : Audio Coding 3
    Mode extension : CM (complete main)
    Format settings, Endianness : Big
    Codec ID : 2000
    Duration : 1h 34mn
    Bit rate mode : Constant
    Bit rate : 192 Kbps
    Channel(s) : 2 channels
    Channel positions : Front: L R
    Sampling rate : 44.1 KHz
    Bit depth : 16 bits
    Compression mode : Lossy
    Stream size : 129 MiB (9%)
    Alignment : Split accross interleaves
    Interleave, duration : 42 ms (1.00 video frame)
    Interleave, preload duration : 500 ms
    Audio #2
    ID : 2
    Format : AC-3
    Format/Info : Audio Coding 3
    Mode extension : CM (complete main)
    Format settings, Endianness : Big
    Codec ID : 2000
    Duration : 1h 34mn
    Bit rate mode : Constant
    Bit rate : 192 Kbps
    Channel(s) : 2 channels
    Channel positions : Front: L R
    Sampling rate : 48.0 KHz
    Bit depth : 16 bits
    Compression mode : Lossy
    Stream size : 129 MiB (9%)
    Alignment : Aligned on interleaves
    Interleave, duration : 42 ms (1.00 video frame)
    Interleave, preload duration : 512 ms

    Скриншоты

    Скачать .torrent

    Скачать торрент-файл бесплатно и на максимальной скорости!

    Как скачивать? · Что такое торрент? · Рейтинг и ограничения

    !ВНИМАНИЕ!
    Сайт не распространяет и не хранит электронные версии произведений, а занимается лишь лишь предоставлением доступа к создаваемому пользователями каталогу ссылок на торрент-файлы, которые содержат только списки хеш-сумм, убедительная просьба с жалобами обращаться напрямую к пользователю. Файлы для обмена на трекере предоставлены пользователями сайта, и администрация не несёт ответственности за их содержание. Просьба не заливать файлы, защищенные авторскими правами, а также файлы нелегального содержания!


    _________________
    [Профиль] [ЛС]
    Показать сообщения:    
    Ответить на тему

    Текущее время: Сегодня, в 00:03

    Часовой пояс: GMT + 2



    Вы не можете начинать темы
    Вы не можете отвечать на сообщения
    Вы не можете редактировать свои сообщения
    Вы не можете удалять свои сообщения
    Вы не можете голосовать в опросах
    Вы не можете прикреплять файлы к сообщениям
    Вы не можете скачивать файлы