BitTorrentTracker PerecTracker.org
BitTorrentTracker PerecTracker.org
    
Регистрация  ·  Вход
 
 · 
Забыли пароль?

  • Даббе: История джинна / Dabbe: Bir cin vakasi (Хасан Карацадаг / Hasan Karacadag) [2012, Турция, Ужасы, WEB-DLRip] VO

    Ответить на тему
     
    Автор Сообщение

    Light

    Создавать темы 11-Мар-2015 16:19

           

    [Цитировать]

    Даббе: История джинна / Dabbe: Bir cin vakasi
    Страна: Турция
    Жанр: Ужасы
    Год выпуска: 2012
    Продолжительность: 01:59:19
    Перевод: Одноголосый закадровый Павел Морозов aka PashaUp
    Cубтитры: нет
    Режиссер: Хасан Карацадаг / Hasan Karacadag
    В ролях: Елцин Атамгюц, Нихан Аыполат, Первин Багдат, Элиф Эрдал, Кораы Кадирага, Мете Сахиноглу, Серен Сертак, Су Бурцу Язги, Измаил Йильдиз, Налан Ёргёт
    Описание: Семейная пара Сейда и Синан, а также их дочка Бурку, не понимают, откуда взялась сущность, нападению которой они подверглись. Медицинская академия Анкары устанавливает систему видеонаблюдения в их доме с целью исследования того, что там происходит. Все, кто видел потом эти записи, считают, что члены той несчастной семьи просто сошли с ума…
    Сэмпл: http://sendfile.su/1094709
    Качество видео: WEBRip-AVC
    Формат видео: MKV
    Видео: MPEG4 Video (H264) 640x360 23.974fps
    Аудио: Dolby AC3 44100Hz stereo 160kbps

    MediaInfo

    Format : Matroska
    Format version : Version 4 / Version 2
    File size : 678 MiB
    Duration : 1h 59mn
    Overall bit rate : 794 Kbps
    Encoded date : UTC 2015-03-07 11:02:03
    Writing application : mkvmerge v7.2.0 ('On Every Street') 64bit built on Sep 13 2014 15:52:10
    Writing library : libebml v1.3.0 + libmatroska v1.4.1
    _STATISTICS_WRITING_APP : mkvmerge v7.2.0 ('On Every Street') 64bit built on Sep 13 2014 15:52:10
    _STATISTICS_WRITING_DATE_UTC : 2015-03-07 11:02:03
    _STATISTICS_TAGS : BPS DURATION NUMBER_OF_FRAMES NUMBER_OF_BYTES
    DURATION : 01:59:21.487000000
    NUMBER_OF_FRAMES : 205613
    NUMBER_OF_BYTES : 143229736
    Video
    ID : 1
    Format : AVC
    Format/Info : Advanced Video Codec
    Format profile : High@L4.0
    Format settings, CABAC : Yes
    Format settings, ReFrames : 4 frames
    Codec ID : V_MPEG4/ISO/AVC
    Duration : 1h 59mn
    Bit rate : 618 Kbps
    Width : 640 pixels
    Height : 360 pixels
    Display aspect ratio : 16:9
    Frame rate mode : Constant
    Frame rate : 23.976 fps
    Color space : YUV
    Chroma subsampling : 4:2:0
    Bit depth : 8 bits
    Scan type : Progressive
    Bits/(Pixel*Frame) : 0.112
    Stream size : 527 MiB (78%)
    Writing library : x264 core 142 r2479 dd79a61
    Encoding settings : cabac=1 / ref=1 / deblock=1:-1:-1 / analyse=0x3:0x113 / me=hex / subme=2 / psy=1 / psy_rd=1.00:0.15 / mixed_ref=0 / me_range=16 / chroma_me=1 / trellis=0 / 8x8dct=1 / cqm=0 / deadzone=21,11 / fast_pskip=1 / chroma_qp_offset=0 / threads=6 / lookahead_threads=2 / sliced_threads=0 / nr=0 / decimate=1 / interlaced=0 / bluray_compat=0 / constrained_intra=0 / bframes=3 / b_pyramid=2 / b_adapt=1 / b_bias=0 / direct=1 / weightb=1 / open_gop=0 / weightp=1 / keyint=240 / keyint_min=24 / scenecut=40 / intra_refresh=0 / rc_lookahead=10 / rc=crf / mbtree=1 / crf=18.0 / qcomp=0.60 / qpmin=0 / qpmax=69 / qpstep=4 / vbv_maxrate=25000 / vbv_bufsize=31250 / crf_max=0.0 / nal_hrd=none / filler=0 / ip_ratio=1.40 / aq=1:1.00
    Default : Yes
    Forced : No
    Color primaries : BT.601 PAL
    Transfer characteristics : BT.709
    Matrix coefficients : BT.601
    Color range : Limited
    Audio
    ID : 2
    Format : AC-3
    Format/Info : Audio Coding 3
    Mode extension : CM (complete main)
    Format settings, Endianness : Big
    Codec ID : A_AC3
    Duration : 1h 59mn
    Bit rate mode : Constant
    Bit rate : 160 Kbps
    Channel(s) : 2 channels
    Channel positions : Front: L R
    Sampling rate : 44.1 KHz
    Bit depth : 16 bits
    Compression mode : Lossy
    Delay relative to video : -83ms
    Stream size : 137 MiB (20%)
    Title : ДАББЕ: ИСТОРИЯ ДЖИННА (П. Морозов-Janetta)
    Language : Russian
    Default : Yes
    Forced : Yes

    Скриншот c названием фильма

    Скриншоты

    Скачать .torrent

    Скачать торрент-файл бесплатно и на максимальной скорости!

    Как скачивать? · Что такое торрент? · Рейтинг и ограничения

    !ВНИМАНИЕ!
    Сайт не распространяет и не хранит электронные версии произведений, а занимается лишь лишь предоставлением доступа к создаваемому пользователями каталогу ссылок на торрент-файлы, которые содержат только списки хеш-сумм, убедительная просьба с жалобами обращаться напрямую к пользователю. Файлы для обмена на трекере предоставлены пользователями сайта, и администрация не несёт ответственности за их содержание. Просьба не заливать файлы, защищенные авторскими правами, а также файлы нелегального содержания!


    _________________
    [Профиль] [ЛС]
    Показать сообщения:    
    Ответить на тему

    Текущее время: Сегодня, в 11:44

    Часовой пояс: GMT + 2



    Вы не можете начинать темы
    Вы не можете отвечать на сообщения
    Вы не можете редактировать свои сообщения
    Вы не можете удалять свои сообщения
    Вы не можете голосовать в опросах
    Вы не можете прикреплять файлы к сообщениям
    Вы не можете скачивать файлы