Register  ·  Log in
Forgot password?

  • Крутые чуваки на Байю / Bad Asses on the Bayou (Крэйг Мосс / Craig Moss) [2015, США, боевик, комедия, WEB-DLRip] DVO

    Reply to topic
    Author Message


    Post 11-Mar-2015 13:07



    Крутые чуваки на Байю / Bad Asses on the Bayou
    Страна: США
    Жанр: боевик, комедия
    Год выпуска: 2015
    Продолжительность: 01:25:12
    Перевод: Любительский (двухголосый закадровый)
    Cубтитры: нет
    Режиссер: Крэйг Мосс/ Craig Moss
    В ролях: Дэнни Трехо, Дэнни Гловер, Джон Эймос, Лони Лав, Джимми Беннетт, Жаклин Флеминг, Майлз Долеак, Джудд Лорманд, Ольга Вильхельмин, Патрик Кернс
    Описание: Фрэнк Вега и Бени Поуп возвращаются — на этот раз они отправляются в Луизиану, где им предстоит найти похищенного друга.
    Качество видео: WEB-DLRip
    Формат видео: AVI
    Видео: Xvid 720x384 23.976fps 1902kbps
    Аудио: Dolby AC3 48000Hz 6ch 384kbps


    Complete name : D:\µTorrent\Bad.Ass.3.Bad.Asses.on.the.Bayou.2015.WEB-DLRip.avi
    Format : AVI
    Format/Info : Audio Video Interleave
    File size : 1.37 GiB
    Duration : 1h 25mn
    Overall bit rate : 2 294 Kbps
    Writing application : VirtualDubMod | || (build 2550/release)
    Writing library : VirtualDubMod build 2550/release
    ID : 0
    Format : MPEG-4 Visual
    Format profile : Advanced Simple@L5
    Format settings, BVOP : 1
    Format settings, QPel : No
    Format settings, GMC : No warppoints
    Format settings, Matrix : Custom
    Codec ID : XVID
    Codec ID/Hint : XviD
    Duration : 1h 25mn
    Bit rate : 1 903 Kbps
    Width : 720 pixels
    Height : 384 pixels
    Display aspect ratio : 1.875
    Frame rate : 23.976 fps
    Color space : YUV
    Chroma subsampling : 4:2:0
    Bit depth : 8 bits
    Scan type : Progressive
    Compression mode : Lossy
    Bits/(Pixel*Frame) : 0.287
    Stream size : 1.13 GiB (83%)
    Writing library : XviD 73
    ID : 1
    Format : AC-3
    Format/Info : Audio Coding 3
    Mode extension : CM (complete main)
    Codec ID : 2000
    Duration : 1h 24mn
    Bit rate mode : Constant
    Bit rate : 384 Kbps
    Channel(s) : 6 channels
    Channel positions : Front: L C R, Side: L R, LFE
    Sampling rate : 48.0 KHz
    Bit depth : 16 bits
    Compression mode : Lossy
    Stream size : 233 MiB (17%)
    Alignment : Split accross interleaves
    Interleave, duration : 42 ms (1.01 video frame)
    Interleave, preload duration : 500 ms

    Скриншот c названием фильма


    Download .torrent

    Download free and at maximum speed!

    How to Download? · What is a torrent? · Ratings and Limitations

    The site does not extend and does not store electronic(digital) versions of products, and only gives access to a reference catalogue created by users on torrent-files which contain only lists of the hash-sums, the earnest entreaty, with complaints(abuse) to access directly to the user. Files for an exchange on tracker are given by users of a site, and the administration does not bear the responsibility for their maintenance. The request to not fill in the files protected by copyrights, and also files of the illegal maintenance!

    [Profile] [PM]
    Display posts from previous:    
    Reply to topic

    The time now is: Today 21:56

    All times are GMT + 3 Hours

    You cannot post new topics in this forum
    You cannot reply to topics in this forum
    You cannot edit your posts in this forum
    You cannot delete your posts in this forum
    You cannot vote in polls in this forum
    You cannot attach files in this forum
    You cannot download files in this forum