Register  ·  Log in
Forgot password?

  • Жнец / Reaper (Вэнь-Хань Ши / Wen-Han Shih) [2014, США, ужасы, фантастика, триллер, криминал, DVDRip] MVO

    Reply to topic
    Author Message


    Post 11-Mar-2015 13:07



    Жнец / Reaper
    Страна: США
    Жанр: ужасы, фантастика, триллер, криминал
    Год выпуска: 2014
    Продолжительность: 01:25:00
    Перевод: Любительский (многоголосый закадровый) Колобок & Victory-Films & XDub
    Cубтитры: нет
    Режиссер:Вэнь-Хань Ши / Wen-Han Shih
    В ролях: Дэнни Трехо, Винни Джонс, Джейк Бьюзи, Шейла Бисли, Омар Джурди, Кристофер Джадж, Джастин Генри, Уильям Шокли, Гэбриел Джаррет, Mike Michaels
    Описание: Натали - молодая и красивая девушка, путешествующая автостопом по стране и пытающаяся заработать больной матери на операцию. В своих путешествиях она сталкивается как с подонками, так и с хорошими людьми. В то время, как Натали пытается добраться до дома, в окрестностях возобновил свою дейтельность психопат, чудом избежавший смертной казни на электрическом стуле. Судьба сводит Натали, ее случайных попутчиков и убийцу в одном отеле, название которому "Последнее пристанище".
    Качество видео: DVDRip
    Формат видео: AVI
    Видео: Xvid 720x400 25fps 1845kbps
    Аудио: Dolby AC3 48000Hz 6ch 448kbps


    Format : AVI
    Format/Info : Audio Video Interleave
    File size : 1.37 GiB
    Duration : 1h 24mn
    Overall bit rate : 2 303 Kbps
    Writing application : VirtualDubMod | || (build 2550/release)
    Writing library : VirtualDubMod build 2550/release
    ID : 0
    Format : MPEG-4 Visual
    Format profile : Advanced Simple@L5
    Format settings, BVOP : 1
    Format settings, QPel : No
    Format settings, GMC : No warppoints
    Format settings, Matrix : Custom
    Codec ID : XVID
    Codec ID/Hint : XviD
    Duration : 1h 24mn
    Bit rate : 1 846 Kbps
    Width : 720 pixels
    Height : 400 pixels
    Display aspect ratio : 16:9
    Frame rate : 25.000 fps
    Color space : YUV
    Chroma subsampling : 4:2:0
    Bit depth : 8 bits
    Scan type : Progressive
    Compression mode : Lossy
    Bits/(Pixel*Frame) : 0.256
    Stream size : 1.10 GiB (80%)
    Writing library : XviD 73
    ID : 1
    Format : AC-3
    Format/Info : Audio Coding 3
    Mode extension : CM (complete main)
    Format settings, Endianness : Big
    Codec ID : 2000
    Duration : 1h 24mn
    Bit rate mode : Constant
    Bit rate : 448 Kbps
    Channel(s) : 6 channels
    Channel positions : Front: L C R, Side: L R, LFE
    Sampling rate : 48.0 KHz
    Bit depth : 16 bits
    Compression mode : Lossy
    Stream size : 272 MiB (19%)
    Alignment : Split accross interleaves
    Interleave, duration : 40 ms (1.00 video frame)
    Interleave, preload duration : 500 ms

    Скриншот c названием фильма


    Download .torrent

    Download free and at maximum speed!

    How to Download? · What is a torrent? · Ratings and Limitations

    The site does not extend and does not store electronic(digital) versions of products, and only gives access to a reference catalogue created by users on torrent-files which contain only lists of the hash-sums, the earnest entreaty, with complaints(abuse) to access directly to the user. Files for an exchange on tracker are given by users of a site, and the administration does not bear the responsibility for their maintenance. The request to not fill in the files protected by copyrights, and also files of the illegal maintenance!

    [Profile] [PM]
    Display posts from previous:    
    Reply to topic

    The time now is: Today 21:27

    All times are GMT + 3 Hours

    You cannot post new topics in this forum
    You cannot reply to topics in this forum
    You cannot edit your posts in this forum
    You cannot delete your posts in this forum
    You cannot vote in polls in this forum
    You cannot attach files in this forum
    You cannot download files in this forum