BitTorrentTracker PerecTracker.org
BitTorrentTracker PerecTracker.org
    
Регистрация  ·  Вход
 
 · 
Забыли пароль?

  • Жнец / Reaper (Вэнь-Хань Ши / Wen-Han Shih) [2014, США, ужасы, фантастика, триллер, криминал, DVDRip] MVO

    Ответить на тему
     
    Автор Сообщение

    Light

    Создавать темы 11-Мар-2015 12:07

           

    [Цитировать]

    Жнец / Reaper
    Страна: США
    Жанр: ужасы, фантастика, триллер, криминал
    Год выпуска: 2014
    Продолжительность: 01:25:00
    Перевод: Любительский (многоголосый закадровый) Колобок & Victory-Films & XDub
    Cубтитры: нет
    Режиссер:Вэнь-Хань Ши / Wen-Han Shih
    В ролях: Дэнни Трехо, Винни Джонс, Джейк Бьюзи, Шейла Бисли, Омар Джурди, Кристофер Джадж, Джастин Генри, Уильям Шокли, Гэбриел Джаррет, Mike Michaels
    Описание: Натали - молодая и красивая девушка, путешествующая автостопом по стране и пытающаяся заработать больной матери на операцию. В своих путешествиях она сталкивается как с подонками, так и с хорошими людьми. В то время, как Натали пытается добраться до дома, в окрестностях возобновил свою дейтельность психопат, чудом избежавший смертной казни на электрическом стуле. Судьба сводит Натали, ее случайных попутчиков и убийцу в одном отеле, название которому "Последнее пристанище".
    Сэмпл: http://sendfile.su/1094675
    Качество видео: DVDRip
    Формат видео: AVI
    Видео: Xvid 720x400 25fps 1845kbps
    Аудио: Dolby AC3 48000Hz 6ch 448kbps

    MediaInfo

    Format : AVI
    Format/Info : Audio Video Interleave
    File size : 1.37 GiB
    Duration : 1h 24mn
    Overall bit rate : 2 303 Kbps
    Writing application : VirtualDubMod 1.5.10.3 | www.virtualdub-fr.org || (build 2550/release)
    Writing library : VirtualDubMod build 2550/release
    Video
    ID : 0
    Format : MPEG-4 Visual
    Format profile : Advanced Simple@L5
    Format settings, BVOP : 1
    Format settings, QPel : No
    Format settings, GMC : No warppoints
    Format settings, Matrix : Custom
    Codec ID : XVID
    Codec ID/Hint : XviD
    Duration : 1h 24mn
    Bit rate : 1 846 Kbps
    Width : 720 pixels
    Height : 400 pixels
    Display aspect ratio : 16:9
    Frame rate : 25.000 fps
    Color space : YUV
    Chroma subsampling : 4:2:0
    Bit depth : 8 bits
    Scan type : Progressive
    Compression mode : Lossy
    Bits/(Pixel*Frame) : 0.256
    Stream size : 1.10 GiB (80%)
    Writing library : XviD 73
    Audio
    ID : 1
    Format : AC-3
    Format/Info : Audio Coding 3
    Mode extension : CM (complete main)
    Format settings, Endianness : Big
    Codec ID : 2000
    Duration : 1h 24mn
    Bit rate mode : Constant
    Bit rate : 448 Kbps
    Channel(s) : 6 channels
    Channel positions : Front: L C R, Side: L R, LFE
    Sampling rate : 48.0 KHz
    Bit depth : 16 bits
    Compression mode : Lossy
    Stream size : 272 MiB (19%)
    Alignment : Split accross interleaves
    Interleave, duration : 40 ms (1.00 video frame)
    Interleave, preload duration : 500 ms

    Скриншот c названием фильма

    Скриншоты

    Скачать .torrent

    Скачать торрент-файл бесплатно и на максимальной скорости!

    Как скачивать? · Что такое торрент? · Рейтинг и ограничения

    !ВНИМАНИЕ!
    Сайт не распространяет и не хранит электронные версии произведений, а занимается лишь лишь предоставлением доступа к создаваемому пользователями каталогу ссылок на торрент-файлы, которые содержат только списки хеш-сумм, убедительная просьба с жалобами обращаться напрямую к пользователю. Файлы для обмена на трекере предоставлены пользователями сайта, и администрация не несёт ответственности за их содержание. Просьба не заливать файлы, защищенные авторскими правами, а также файлы нелегального содержания!


    _________________
    [Профиль] [ЛС]
    Показать сообщения:    
    Ответить на тему

    Текущее время: Сегодня, в 03:24

    Часовой пояс: GMT + 2



    Вы не можете начинать темы
    Вы не можете отвечать на сообщения
    Вы не можете редактировать свои сообщения
    Вы не можете удалять свои сообщения
    Вы не можете голосовать в опросах
    Вы не можете прикреплять файлы к сообщениям
    Вы не можете скачивать файлы