BitTorrentTracker PerecTracker.org
BitTorrentTracker PerecTracker.org
    
Регистрация  ·  Вход
 
 · 
Забыли пароль?

  • Несломленный / Unbroken (Анджелина Джоли / Angelina Jolie) [2014, США, драма, военный, биография, спорт, WEB-DLRip] Dub (Line)

    Ответить на тему
     
    Автор Сообщение

    Light

    Создавать темы 10-Мар-2015 19:19

           

    [Цитировать]

    --Несломленный / Unbroken-Страна: США
    Жанр: драма, военный, биография, спорт
    Год выпуска: 2014
    Продолжительность: 02:17:25--Перевод: Профессиональный (дублированный) Line
    Cубтитры: нет-Режиссер: Анджелина Джоли / Angelina Jolie-В ролях: Джек О'Коннелл, Донал Глисон, Такамаса Исихара, Гаррет Хедлунд, Финн Уиттрок, Мэттью Крокер, Джай Кортни, Маддалена Искьяле, Винченцо Амато, Джон Магаро
    Описание: Фильм основан на реальных событиях и рассказывает об американце Луи Замперини, который принимал участие в Олимпийских играх 1936 года в Берлине. Он не одержал победу в финальном забеге, но, по какой-то причине, снискал расположение Гитлера, который пригласил его к себе в ложу. Предполагалось, что Замперини примет участие и в следующих Олимпийских играх, но из-за начала Второй мировой войны он был вынужден отправиться на фронт. Его самолет был сбит над Японией, а сам Замперини попал в плен к японцам, где пережил многочисленные пытки. Домой он вернулся уже лишь после окончания войны.-| Сэмпл | IMDB | КиноПоиск |-Качество видео: WEB-DLRip
    Формат видео: AVI
    Видео: 720x304 (2.37:1), 23.976 fps, XviD build 50 ~1742 kbps avg, 0.33 bit/pixel
    Аудио: 48 kHz, AC3 Dolby Digital, 2/0 (L,R) ch, ~384 kbps

    MediaInfo

    Общее
    Полное имя : F:\BD torrent\mytorrentsup\Nesl0mlennyj.2014.D.WEB-DLRip.2100MB.avi
    Формат : AVI
    Формат/Информация : Audio Video Interleave
    Размер файла : 2,05 Гбайт
    Продолжительность : 2 ч. 17 м.
    Общий поток : 2136 Кбит/сек
    Программа кодирования : VirtualDubMod 1.5.10.2 (build 2540/release)
    Библиотека кодирования : VirtualDubMod build 2540/release
    Видео
    Идентификатор : 0
    Формат : MPEG-4 Visual
    Профиль формата : Advanced Simple@L5
    Параметр BVOP формата : 2
    Параметр QPel формата : Нет
    Параметр GMC формата : Без точки перехода
    Параметр матрицы формата : Default (MPEG)
    Идентификатор кодека : XVID
    Идентификатор кодека/Подсказка : XviD
    Продолжительность : 2 ч. 17 м.
    Битрейт : 1743 Кбит/сек
    Ширина : 720 пикселей
    Высота : 304 пикселя
    Соотношение сторон : 2,35:1
    Частота кадров : 23,976 кадра/сек
    Цветовое пространство : YUV
    Субдискретизация насыщенности : 4:2:0
    Битовая глубина : 8 бит
    Тип развёртки : Прогрессивная
    Метод сжатия : С потерями
    Бит/(Пиксели*Кадры) : 0.332
    Размер потока : 1,67 Гбайт (82%)
    Библиотека кодирования : XviD 1.2.1 (UTC 2008-12-04)
    Аудио
    Идентификатор : 1
    Формат : AC-3
    Формат/Информация : Audio Coding 3
    Расширение режима : CM (complete main)
    Параметр Endianness формата : Big
    Идентификатор кодека : 2000
    Продолжительность : 2 ч. 17 м.
    Вид битрейта : Постоянный
    Битрейт : 384 Кбит/сек
    Каналы : 2 канала
    Расположение каналов : Front: L R
    Частота : 48,0 КГц
    Битовая глубина : 16 бит
    Метод сжатия : С потерями
    Размер потока : 377 Мбайт (18%)
    Выравнивание : Разделение по промежуткам
    Продолжительность промежутка : 42 мс. (1,00 видеокадр)
    Время предзагрузки промежутка : 500 мс.

    Скриншот c названием фильма

    Скриншоты

    Скачать .torrent

    Скачать торрент-файл бесплатно и на максимальной скорости!

    Как скачивать? · Что такое торрент? · Рейтинг и ограничения

    !ВНИМАНИЕ!
    Сайт не распространяет и не хранит электронные версии произведений, а занимается лишь лишь предоставлением доступа к создаваемому пользователями каталогу ссылок на торрент-файлы, которые содержат только списки хеш-сумм, убедительная просьба с жалобами обращаться напрямую к пользователю. Файлы для обмена на трекере предоставлены пользователями сайта, и администрация не несёт ответственности за их содержание. Просьба не заливать файлы, защищенные авторскими правами, а также файлы нелегального содержания!


    _________________
    [Профиль] [ЛС]
    Показать сообщения:    
    Ответить на тему

    Текущее время: Сегодня, в 10:17

    Часовой пояс: GMT + 2



    Вы не можете начинать темы
    Вы не можете отвечать на сообщения
    Вы не можете редактировать свои сообщения
    Вы не можете удалять свои сообщения
    Вы не можете голосовать в опросах
    Вы не можете прикреплять файлы к сообщениям
    Вы не можете скачивать файлы