BitTorrentTracker PerecTracker.org
BitTorrentTracker PerecTracker.org
    
Регистрация  ·  Вход
 
 · 
Забыли пароль?

  • Викинги / Vikings (Сезон 3, Серии 1-10 из 10) (Киаран Доннелли, Йохан Ренк, Кен Джиротти) [2015, Историческая драма, приключения, боевик, викинги, WEBDLRip] [DD5.1] [MVO] [LostFilm, AlexFilm, NewStudio, BaibaKo]

    Ответить на тему
     
    Автор Сообщение

    Враг Нароода

    Создавать темы 10-Мар-2015 18:52

           

    [Цитировать]

    ----Викинги / Vikings Сезон 3, Серии 1-10 из 10------Год выпуска: 2015
    Выпущено: Ирландия, Канада, Irish Film Board, Take 5 Productions, World 2000 Entertainment
    Жанр: Историческая драма, приключения, боевик, викинги
    Продолжительность: 00:44:00
    Сезон: 3
    Серия: 1-10
    Количество серий в сезоне: 10
    Озвучка 1: Профессиональный многоголосый - LostFilm
    Озвучка 2: Профессиональный многоголосый - AlexFilm
    Озвучка 3: Профессиональный многоголосый - NewStudio
    Озвучка 4: Профессиональный многоголосый - BaibaKo
    Субтитры: Русские, английские--Сайт сериала:
    --Режиссер: Киаран Доннелли, Йохан Ренк, Кен Джиротти--В ролях: Трэвис Фиммел, Клайв Стэнден, Кэтрин Уинник, Гэбриел Бирн, Джессалин Гилсиг, Густаф Скарсгард, Джефферсон Холл, Джордж Благден, Тадж Мерфи, Диармэйд Мурта-- Сериал рассказывает об отряде викингов Рагнара. Он восстал, чтобы стать королём племён викингов. Норвежская легенда гласит, что он был прямым потомком Одина, бога войны и воинов.Сюжет:
    Молодой фермер Рагнар Лодброк (Трэвис Фиммел), мечтающий о походе на Запад, выступает против воли местного правителя викингов, предпочитающего безопасные набеги на бедные соседние земли. Заручившись поддержкой своей семьи, герой принимает решение ослушаться приказа, тем самым разделив своих сородичей на два противоборствующих лагеря. С помощью искусного мастера Рагнар берется за строительство быстроходного корабля. С отрядом преданных бойцов викинг готов совершить нападение на сулящие несметные богатства земли англосаксов. Его легендарное путешествие в Британию будет воспето в мифах и преданиях…----Качество : WEB-DLRip
    Формат: AVI
    Видео кодек: DivX5
    Видео: 2674Кбит/сек,720х404(16.9),в 23.976кадр/сек,MPEG4 Visual(DivX5)
    Аудио кодек: AC3
    Аудио #1:AC3 , 640 Kbps, 48.0 KHz, 6 ch - LostFilm
    Аудио #2: AC3, 640 Kbps, 48.0 KHz, 6 ch - AlexFilm
    Аудио #3: AC3, 640 Kbps, 48.0 KHz, 6 ch - NewStudio
    Аудио #4: AC3, 640 Kbps, 48.0 KHz,6 ch - BaibaKo
    Аудио #5: AC3, 640 Kbps, 48.0 KHz,6 ch - English--

    Доп. информация:

    Звуковая дорожка сделана путем наложения чистого голоса озвучивателей на центральный канал оригинальной дорожки. Качество идентично звуковой дорожке.
    --

    Список эпизодов сезона

    01 Наёмник / Mercenary
    02 Странник / Wanderer
    03 Путь воина / Warrior's Fate
    04 ШрамScarred
    05 Узурпатор / The Usurper
    06 Рождённый заново (Born Again)
    07 Париж (Paris)
    08 В атаку! (To the Gates!)
    09 Перелом (Breaking Point)
    10 Мертвец (The Dead)
    --

    MediaInfo 1сезона

    General
    Полное имя : D:\ВИКИНГИ\VIKINGS_2015_S03_RUS_ENG[LostFilm_AlexFilm_NewStudio_BaibaKo]_[AVI_DivX5_DD5.1]_Nikolai.Baranov_WEB-DLRip\VIKINGS_2015_S03E01_RUS_ENG[LostFilm_AlexFilm_NewStudio_BaibaKo]_[AVI_DivX5_DD5.1]_Nikolai.Baranov_WEB-DLRip.divx
    Формат : DivX
    Формат/Информация : Hack of AVI
    Размер файла : 1.86 GiB
    Продолжительность : 45mn 10s
    Общий поток : 5 903 Kbps
    Video
    Идентификатор : 0
    Формат : MPEG-4 Visual
    Параметр BVOP формата : 1
    Параметр QPel формата : No
    Параметр GMC формата : No warppoints
    Параметр матрицы формата : Default (H.263)
    Режим смешивания : Packed bitstream
    Идентификатор кодека : DX50
    Идентификатор кодека/Подсказка : DivX 5
    Продолжительность : 45mn 10s
    Битрейт : 2 674 Kbps
    Ширина : 720 pixels
    Высота : 404 pixels
    Соотношение сторон : 16:9
    Частота кадров : 23.976 fps
    Цветовое пространство : YUV
    Субдискретизация насыщенности : 4:2:0
    Битовая глубина : 8 bits
    Тип развёртки : Progressive
    Метод сжатия : Lossy
    Бит/(Пиксели*Кадры) : 0.383
    Размер потока : 864 MiB (45%)
    Заголовок : Video
    Библиотека кодирования : DivX 2682
    Audio #1
    Идентификатор : 1
    Формат : AC-3
    Формат/Информация : Audio Coding 3
    Расширение режима : CM (complete main)
    Параметр Endianness формата : Big
    Идентификатор кодека : 2000
    Продолжительность : 45mn 10s
    Вид битрейта : Constant
    Битрейт : 640 Kbps
    Каналы : 6 channels
    Расположение каналов : Front: L C R, Side: L R, LFE
    Частота : 48.0 KHz
    Битовая глубина : 16 bits
    Метод сжатия : Lossy
    Размер потока : 207 MiB (11%)
    Выравнивание : Split accross interleaves
    Продолжительность промежутка : 42 ms (1.00 video frame)
    Время предзагрузки промежутка : 500 ms
    Заголовок : Audio - en-US01
    Audio #2
    Идентификатор : 2
    Формат : AC-3
    Формат/Информация : Audio Coding 3
    Расширение режима : CM (complete main)
    Параметр Endianness формата : Big
    Идентификатор кодека : 2000
    Продолжительность : 45mn 10s
    Вид битрейта : Constant
    Битрейт : 640 Kbps
    Каналы : 6 channels
    Расположение каналов : Front: L C R, Side: L R, LFE
    Частота : 48.0 KHz
    Битовая глубина : 16 bits
    Метод сжатия : Lossy
    Размер потока : 207 MiB (11%)
    Выравнивание : Split accross interleaves
    Продолжительность промежутка : 42 ms (1.00 video frame)
    Время предзагрузки промежутка : 500 ms
    Заголовок : Audio - en-US01
    Audio #3
    Идентификатор : 3
    Формат : AC-3
    Формат/Информация : Audio Coding 3
    Расширение режима : CM (complete main)
    Параметр Endianness формата : Big
    Идентификатор кодека : 2000
    Продолжительность : 45mn 10s
    Вид битрейта : Constant
    Битрейт : 640 Kbps
    Каналы : 6 channels
    Расположение каналов : Front: L C R, Side: L R, LFE
    Частота : 48.0 KHz
    Битовая глубина : 16 bits
    Метод сжатия : Lossy
    Размер потока : 207 MiB (11%)
    Выравнивание : Split accross interleaves
    Продолжительность промежутка : 42 ms (1.00 video frame)
    Время предзагрузки промежутка : 500 ms
    Заголовок : Audio - en-US01
    Audio #4
    Идентификатор : 4
    Формат : AC-3
    Формат/Информация : Audio Coding 3
    Расширение режима : CM (complete main)
    Параметр Endianness формата : Big
    Идентификатор кодека : 2000
    Продолжительность : 45mn 10s
    Вид битрейта : Constant
    Битрейт : 640 Kbps
    Каналы : 6 channels
    Расположение каналов : Front: L C R, Side: L R, LFE
    Частота : 48.0 KHz
    Битовая глубина : 16 bits
    Метод сжатия : Lossy
    Размер потока : 207 MiB (11%)
    Выравнивание : Split accross interleaves
    Продолжительность промежутка : 42 ms (1.00 video frame)
    Время предзагрузки промежутка : 500 ms
    Заголовок : Audio - en-US01
    Audio #5
    Идентификатор : 5
    Формат : AC-3
    Формат/Информация : Audio Coding 3
    Расширение режима : CM (complete main)
    Параметр Endianness формата : Big
    Идентификатор кодека : 2000
    Продолжительность : 45mn 10s
    Вид битрейта : Constant
    Битрейт : 640 Kbps
    Каналы : 6 channels
    Расположение каналов : Front: L C R, Side: L R, LFE
    Частота : 48.0 KHz
    Битовая глубина : 16 bits
    Метод сжатия : Lossy
    Размер потока : 207 MiB (11%)
    Выравнивание : Split accross interleaves
    Продолжительность промежутка : 42 ms (1.00 video frame)
    Время предзагрузки промежутка : 500 ms
    Заголовок : Audio - en-US01
    Text
    Идентификатор : 6
    Формат : DivX Subtitle
    Идентификатор кодека : DXSB
    Идентификатор кодека/Информация : Subtitle in AVI from DivX networks
    Ширина : 640 characters
    Высота : 480 characters
    Битовая глубина : 2 bits
    Размер потока : 416 KiB (0%)
    Заголовок : Subtitle
    --

    Скриншоты сезона

    ----

    Как закачать отдельный файл

    1. Открыть торрент
    2. Снять галки с тех файлов торрента, которые мы не хотим закачивать. Оставляем только на нужных нам файлах (файле).
    3. Нажать О.К.
    В клиенте utorrent
    Инструкция
    1) Открыть торрент

    2) Снять галки с тех файлов торрента, которые мы не хотим закачивать:
    * либо вручную, снимая с каждого файла галку( скрин №1)
    * либо, нажав кнопку "Снять метки (Select None)", сняв сразу со всех файлов(скрин №2)
    №1

    №2

    Оставляем только на нужных нам файлах (файле).

    3)Нажать О.К
    ------Внимание!!! 26.04. 2015. РАЗДАЧА ОБНОВЛЕНА.ФИНАЛ СЕЗОНА..ОБНОВИТЕ ТОРЕНТ ФАЙЛ.ПРИЯТНОГО ПРОСМОТРА . --Релиз от: Nikolai.Baranov --------
    Скачать .torrent

    Скачать торрент-файл бесплатно и на максимальной скорости!

    Как скачивать? · Что такое торрент? · Рейтинг и ограничения

    !ВНИМАНИЕ!
    Сайт не распространяет и не хранит электронные версии произведений, а занимается лишь лишь предоставлением доступа к создаваемому пользователями каталогу ссылок на торрент-файлы, которые содержат только списки хеш-сумм, убедительная просьба с жалобами обращаться напрямую к пользователю. Файлы для обмена на трекере предоставлены пользователями сайта, и администрация не несёт ответственности за их содержание. Просьба не заливать файлы, защищенные авторскими правами, а также файлы нелегального содержания!


    _________________

    Легко быть оптимистом, когда судьба не валит с ног тяжелыми ударами, а лишь иногда легонько шлепает по заднице.


    Последний раз редактировалось: Враг Нароода (2015-04-26 11:07), всего редактировалось 8 раз(а)
    [Профиль] [ЛС]
    Показать сообщения:    
    Ответить на тему

    Текущее время: Сегодня, в 11:48

    Часовой пояс: GMT + 2



    Вы не можете начинать темы
    Вы не можете отвечать на сообщения
    Вы не можете редактировать свои сообщения
    Вы не можете удалять свои сообщения
    Вы не можете голосовать в опросах
    Вы не можете прикреплять файлы к сообщениям
    Вы не можете скачивать файлы