BitTorrentTracker PerecTracker.org
BitTorrentTracker PerecTracker.org
    
Регистрация  ·  Вход
 
 · 
Забыли пароль?

  • Исчезнувшая / Пропавшая без вести / Gone Missing (Тара Миле) [2013, США, Триллер, детектив, драма, криминал, приключения, BDRip] MVO (RG Колобок & Victory-Films)

    Ответить на тему
     
    Автор Сообщение

    Light

    Создавать темы 09-Мар-2015 22:19

           

    [Цитировать]

    Исчезнувшая / Пропавшая без вести / Gone Missing
    Жанр: Триллер, детектив, драма, криминал, приключения
    Год выпуска: 2013
    Выпущено: США, Protocol Entertainment, Vanished Prods
    Продолжительность: 01:26:20
    Перевод: Любительский (многоголосый закадровый) RG Колобок & Victory-Films
    Cубтитры: нет
    Режиссёр: Тара Миле
    В ролях: Дафна Зунига, Лорен Боулз, Бригитт Давидовичи, Гейдж Голайтли, Николас Р. Грава, Джеймс Мартин Келли, Алехандро Патино, Брок Харрис, Хантер Гарнер, Дэвид Стифел
    Описание: Рене и Лиза - матери двух 18-ти летних дочерей, которые так же, как и они дружат с детства и так же, как и они являются двумя противоположностями. Как и их характеры и отношение к жизни, их методы воспитания детей отличаются: Лиза разрешает дочери всё, что та пожелает, Рене же держит дочку в ежовых рукавицах, воспитывает в ней ответственность и сознательность. И вот, в пору весенних каникул, обе семьи отправляются на курорт рядом с мексиканской границей, чтобы отдохнуть. Девочкам не нравится находиться под присмотром матерей и они решают под покровом ночи нанести визит к симпатичным парням из соседнего номера. Вскоре девушки понимают, что влипли в опасную и двусмысленную ситуацию, из которой выбраться нелегко... и каждая из них делает свой выбор так, как научили их мамаши.

    Качество видео: BDRip [Исходник: Blu-Ray Remux (1080p) от Виктора Сергеевича]
    Формат видео: AVI
    Видео: XviD, 1974 Кбит/с, 704x400 (16:9), 23.976 кадр/с
    Аудио: Русский, MP3, 48000 Гц, 448 Кбит/с, 6 каналов (5.1) - MVO [RG Колобок & Victory-Films]

    Автор рипа - ivandubskoj

    О переводе

    Перевод: Любительский многоголосый
    Автор перевода - Северный
    Озвучено: RG Колобок & Victory-Films
    Текст читали: Den904, DeadSno, Андрей Питерский, Камила Юнусова, Елизавета Алейникова, Александр Палагута

    MediaInfo

    General
    Complete name : Gone.Missing.2013.BDRip.avi
    Format : AVI
    Format/Info : Audio Video Interleave
    File size : 1.47 GiB
    Duration : 1h 26mn
    Overall bit rate : 2 429 Kbps
    Writing application : VirtualDubMod 1.5.10.3 (build 2550/release)
    Writing library : VirtualDubMod build 2550/release
    Copyright : rip by ivandubskoj
    Video
    ID : 0
    Format : MPEG-4 Visual
    Format profile : Advanced Simple@L5
    Format settings, BVOP : 1
    Format settings, QPel : No
    Format settings, GMC : No warppoints
    Format settings, Matrix : Custom
    Codec ID : XVID
    Codec ID/Hint : XviD
    Duration : 1h 26mn
    Bit rate : 1 974 Kbps
    Width : 704 pixels
    Height : 400 pixels
    Display aspect ratio : 16:9
    Frame rate : 23.976 fps
    Color space : YUV
    Chroma subsampling : 4:2:0
    Bit depth : 8 bits
    Scan type : Progressive
    Compression mode : Lossy
    Bits/(Pixel*Frame) : 0.292
    Stream size : 1.19 GiB (81%)
    Writing library : XviD 73
    Audio
    ID : 1
    Format : AC-3
    Format/Info : Audio Coding 3
    Mode extension : CM (complete main)
    Codec ID : 2000
    Duration : 1h 26mn
    Bit rate mode : Constant
    Bit rate : 448 Kbps
    Channel(s) : 6 channels
    Channel positions : Front: L C R, Side: L R, LFE
    Sampling rate : 48.0 KHz
    Bit depth : 16 bits
    Compression mode : Lossy
    Stream size : 277 MiB (18%)
    Alignment : Split accross interleaves
    Interleave, duration : 64 ms (1.53 video frames)
    Interleave, preload duration : 500 ms

    Скриншот c названием фильма

    Скриншоты

    Скачать .torrent

    Скачать торрент-файл бесплатно и на максимальной скорости!

    Как скачивать? · Что такое торрент? · Рейтинг и ограничения

    !ВНИМАНИЕ!
    Сайт не распространяет и не хранит электронные версии произведений, а занимается лишь лишь предоставлением доступа к создаваемому пользователями каталогу ссылок на торрент-файлы, которые содержат только списки хеш-сумм, убедительная просьба с жалобами обращаться напрямую к пользователю. Файлы для обмена на трекере предоставлены пользователями сайта, и администрация не несёт ответственности за их содержание. Просьба не заливать файлы, защищенные авторскими правами, а также файлы нелегального содержания!


    _________________
    [Профиль] [ЛС]
    Показать сообщения:    
    Ответить на тему

    Текущее время: Сегодня, в 16:20

    Часовой пояс: GMT + 2



    Вы не можете начинать темы
    Вы не можете отвечать на сообщения
    Вы не можете редактировать свои сообщения
    Вы не можете удалять свои сообщения
    Вы не можете голосовать в опросах
    Вы не можете прикреплять файлы к сообщениям
    Вы не можете скачивать файлы