BitTorrentTracker PerecTracker.org
BitTorrentTracker PerecTracker.org
    
Регистрация  ·  Вход
 
 · 
Забыли пароль?

  • Эволюция Борна / Наследие Борна / The Bourne Legacy (Тони Гилрой / Tony Gilroy) [2012, США, боевик, триллер, детектив, приключения, HDTVRip] [Open Matte] AVO (Володарский, Живов)

    Ответить на тему
     
    Автор Сообщение

    Light

    Создавать темы 09-Мар-2015 22:19

           

    [Цитировать]

    Эволюция Борна / Наследие Борна / The Bourne LegacyСтрана: США
    Жанр: боевик, триллер, детектив, приключения
    Год выпуска: 2012
    Продолжительность: 02:01:05
    Перевод 1: Авторский (одноголосый закадровый) Леонид Володарский
    Перевод 2: Авторский (одноголосый закадровый) Юрий Живов
    Cубтитры: нет
    Режиссер: Тони Гилрой / Tony Gilroy
    В ролях: Джереми Реннер, Рейчел Вайс, Эдвард Нортон, Джоан Аллен, Альберт Финни, Скотт Гленн, Стейси Кич, Донна Мерфи, Майкл Чернус, Кори Столл
    Описание: В игре всегда несколько фигур. Одна из них — Джейсон Борн, другая — совершенный агент Аарон Кросс. Их возможности безграничны. Но даже у идеального оружия бывают сбои…

    Качество видео: HDTVRip спасибо miha2154
    Формат видео: AVI
    Видео кодек: XviD
    Аудио кодек: AC3
    Видео: 720x400 (1.80:1), 25 fps, XviD build 65 ~1516 kbps avg, 0.21 bit/pixel
    Аудио#1: 48 kHz, AC3 Dolby Digital, 2/0 (L,R) ch, ~192 kbps - Володарский
    Аудио#2: 48 kHz, AC3 Dolby Digital, 2/0 (L,R) ch, ~192 kbps - Живов - отдельно
    Доп.инфо
    Цитата:
    Цитата:

    Рип с канала Первый HD. Из видеоряда удален логотип канала, остались послерекламные вставки с названием фильма.
    За перевод Володарского большое спасибо пользователям форума hdtracker:
    Xerman13; dunhill200; Лексал; С.Чистобаев; Role; kondratzx; karantin66; The Undertaker; Luka69; denis_mgn_1987; Диммон; Brown15
    За Живова спасибо eyrobot

    MediaInfo

    Полное имя : Эволюция Борна\Эволюция Борна.avi
    Формат : AVI
    Формат/Информация : Audio Video Interleave
    Размер файла : 1,45 Гбайт
    Продолжительность : 2 ч. 1 м.
    Общий поток : 1719 Кбит/сек
    Программа кодирования : VirtualDubMod 1.5.10.2 (build 2540/release)
    Библиотека кодирования : VirtualDubMod build 2540/release
    Видео
    Идентификатор : 0
    Формат : MPEG-4 Visual
    Профиль формата : Advanced Simple@L5
    Параметр BVOP формата : 1
    Параметр QPel формата : Нет
    Параметр GMC формата : Без точки перехода
    Параметр матрицы формата : Выборочная
    Идентификатор кодека : XVID
    Идентификатор кодека/Подсказка : XviD
    Продолжительность : 2 ч. 1 м.
    Битрейт : 1517 Кбит/сек
    Ширина : 720 пикселей
    Высота : 400 пикселей
    Соотношение сторон : 16:9
    Частота кадров : 25,000 кадров/сек
    Цветовое пространство : YUV
    Субдискретизация насыщенности : 4:2:0
    Битовая глубина : 8 бит
    Тип развёртки : Прогрессивная
    Метод сжатия : С потерями
    Бит/(Пиксели*Кадры) : 0.211
    Размер потока : 1,28 Гбайт (88%)
    Библиотека кодирования : XviD 65
    Аудио
    Идентификатор : 1
    Формат : AC-3
    Формат/Информация : Audio Coding 3
    Расширение режима : CM (complete main)
    Параметр Endianness формата : Big
    Идентификатор кодека : 2000
    Продолжительность : 2 ч. 1 м.
    Вид битрейта : Постоянный
    Битрейт : 192 Кбит/сек
    Каналы : 2 канала
    Расположение каналов : Front: L R
    Частота : 48,0 КГц
    Битовая глубина : 16 бит
    Метод сжатия : С потерями
    Размер потока : 166 Мбайт (11%)
    Выравнивание : Разделение по промежуткам
    Продолжительность промежутка : 40 мс. (1,00 видеокадр)
    Время предзагрузки промежутка : 500 мс.

    Скриншоты

    Скачать .torrent

    Скачать торрент-файл бесплатно и на максимальной скорости!

    Как скачивать? · Что такое торрент? · Рейтинг и ограничения

    !ВНИМАНИЕ!
    Сайт не распространяет и не хранит электронные версии произведений, а занимается лишь лишь предоставлением доступа к создаваемому пользователями каталогу ссылок на торрент-файлы, которые содержат только списки хеш-сумм, убедительная просьба с жалобами обращаться напрямую к пользователю. Файлы для обмена на трекере предоставлены пользователями сайта, и администрация не несёт ответственности за их содержание. Просьба не заливать файлы, защищенные авторскими правами, а также файлы нелегального содержания!


    _________________
    [Профиль] [ЛС]
    Показать сообщения:    
    Ответить на тему

    Текущее время: Сегодня, в 22:22

    Часовой пояс: GMT + 2



    Вы не можете начинать темы
    Вы не можете отвечать на сообщения
    Вы не можете редактировать свои сообщения
    Вы не можете удалять свои сообщения
    Вы не можете голосовать в опросах
    Вы не можете прикреплять файлы к сообщениям
    Вы не можете скачивать файлы