BitTorrentTracker PerecTracker.org
BitTorrentTracker PerecTracker.org
    
Регистрация  ·  Вход
 
 · 
Забыли пароль?

  • Вердикт / Het Vonnis (Ян Верхейен / Jan Verheyen) [2013, Бельгия, судебная драма, HDRip-AVC] Rus Sub

    Ответить на тему
     
    Автор Сообщение

    Light

    Создавать темы 09-Мар-2015 18:07

           

    [Цитировать]

    Вердикт / Het Vonnis / The Verdict-Год выпуска: 2013
    Страна: Бельгия
    Студии: Eyeworks Film & TV Drama
    Жанр: судебная драма
    Продолжительность: 01:47:30-Перевод: Субтитры (sombre soul)
    Озвучение: нет
    Субтитры: русские
    Оригинальная дорожка: нидерландская-Режиссёр и сценарий: Ян Верхейен / Jan Verheyen
    Композитор: Стив Вилларт-Актерский состав: Кун Де Бу, Йохан Лейсен, Верле Батенс, Яппе Клас, Йо Де Мейере, Крис Ломме, Хендрик Артс, Дирк Тёйпенс, Йоке Девинк, Нелл Каттриссе, Вик де Вахтер-У Люка Сегерса было все — успешная карьера инженера в престижной фирме, красивая и любящая жена Элла и дочка Анна. Однажды вечером, возвращаясь домой после работы, они остановились на заправке. Пока муж заправлял машину, жена ушла купить хлеб в магазине неподалеку. И тогда мир Люка Сегерса рухнул, словно карточный домик. Все, что у него было, исчезло, а вскоре само его будущее покрылось туманом неизвестности.-Ян Верхейен, режиссер: «Эта тема привлекла меня в начале 2009 года, когда банда торговцев людьми из Восточной Европы, которые наживались на продаже самых уязвимых членов общества — нелегальных иммигрантах, беженцах и т. д., была выпущена на свободу из-за так называемой процедурной ошибки. Масса людей, включая меня, были шокированы и глубоко поражены, и именно тогда я решил узнать об этом подробнее. Я провел немало времени в изучении данной проблемы, беседовал с юристами, с людьми из судебной системы. И все эти данные я попытался использовать в фильме, не выходя за рамки мейнстрима. Мне совсем не хотелось создавать артхаусное кино, которое посмотрела бы горстка зрителей, я хотел охватить как можно большую аудиторию».-Интересно: Фильм собрал рекордную для 2013 года кассу в бельгийском прокате — было продано 400 тысяч билетов. Кроме того, режиссер Ян Верхейен на Монреальском кинофестивале был назван лучшим режиссером года, а его картина получила лестные отзывы со всего мира. Некоторые называют этот фильм лучшим в карьере режиссера.--Качество: HDRip-AVC (ripped by sombre soul)
    Формат: MKV
    Кодек видео: H.264
    Кодек звука: AC3
    Видео: H.264, 1152x482, 25 fps, 1989 kbps, 0.143 bit/pixel
    Аудио: AC3, 48 kHz, 6 ch, 448 kbps
    Субтитры: русские (sofsub)

    MediaInfo

    General
    Unique ID                      : 236324985447281952458315117153343351824 (0xB1CA895F23FC0950A7C8BB861091AC10)
    Complete name                  : D:\Translations\Вердикт (Het Vonnis) (Belgium).mkv
    Format                         : Matroska
    Format version                 : Version 4 / Version 2
    File size                      : 1.80 GiB
    Duration                       : 1h 47mn
    Overall bit rate               : 2 402 Kbps
    Encoded date                   : UTC 2015-03-09 04:39:02
    Writing application            : mkvmerge v7.5.0 ('Glass Culture') 64bit built on Jan  4 2015 16:48:44
    Writing library                : Lavf55.12.0
    DURATION                       : 01:43:07.679000000
    NUMBER_OF_FRAMES               : 1016
    NUMBER_OF_BYTES                : 82936
    _STATISTICS_WRITING_APP        : mkvmerge v7.5.0 ('Glass Culture') 64bit built on Jan  4 2015 16:48:44
    _STATISTICS_WRITING_DATE_UTC   : 2015-03-09 04:39:02
    _STATISTICS_TAGS               : BPS DURATION NUMBER_OF_FRAMES NUMBER_OF_BYTES
    Video
    ID                             : 1
    Format                         : AVC
    Format/Info                    : Advanced Video Codec
    Format profile                 : High@L4.1
    Format settings, CABAC         : Yes
    Format settings, ReFrames      : 9 frames
    Codec ID                       : V_MPEG4/ISO/AVC
    Duration                       : 1h 47mn
    Bit rate                       : 1 989 Kbps
    Width                          : 1 152 pixels
    Height                         : 482 pixels
    Display aspect ratio           : 2.40:1
    Frame rate mode                : Constant
    Frame rate                     : 25.000 fps
    Color space                    : YUV
    Chroma subsampling             : 4:2:0
    Bit depth                      : 8 bits
    Scan type                      : Progressive
    Bits/(Pixel*Frame)             : 0.143
    Stream size                    : 1.43 GiB (79%)
    Writing library                : x264 core 142 r2479 dd79a61
    Encoding settings              : cabac=1 / ref=9 / deblock=1:-3:-3 / analyse=0x3:0x133 / me=umh / subme=9 / psy=1 / psy_rd=1.00:0.00 / mixed_ref=1 / me_range=24 / chroma_me=1 / trellis=2 / 8x8dct=1 / cqm=0 / deadzone=21,11 / fast_pskip=0 / chroma_qp_offset=-2 / threads=6 / lookahead_threads=1 / sliced_threads=0 / nr=0 / decimate=1 / interlaced=0 / bluray_compat=0 / constrained_intra=0 / bframes=6 / b_pyramid=2 / b_adapt=2 / b_bias=0 / direct=3 / weightb=1 / open_gop=0 / weightp=2 / keyint=250 / keyint_min=25 / scenecut=40 / intra_refresh=0 / rc_lookahead=60 / rc=abr / mbtree=1 / bitrate=1989 / ratetol=1.0 / qcomp=0.60 / qpmin=0 / qpmax=69 / qpstep=4 / vbv_maxrate=62500 / vbv_bufsize=78125 / nal_hrd=none / filler=0 / ip_ratio=1.40 / aq=2:1.00
    Default                        : Yes
    Forced                         : No
    Color primaries                : BT.709
    Transfer characteristics       : BT.709
    Matrix coefficients            : BT.709
    Color range                    : Limited
    DURATION                       : 01:47:29.960000000
    NUMBER_OF_FRAMES               : 161249
    NUMBER_OF_BYTES                : 1574108947
    _STATISTICS_WRITING_APP        : mkvmerge v7.5.0 ('Glass Culture') 64bit built on Jan  4 2015 16:48:44
    _STATISTICS_WRITING_DATE_UTC   : 2015-03-09 04:39:02
    _STATISTICS_TAGS               : BPS DURATION NUMBER_OF_FRAMES NUMBER_OF_BYTES
    Audio
    ID                             : 2
    Format                         : AC-3
    Format/Info                    : Audio Coding 3
    Mode extension                 : CM (complete main)
    Format settings, Endianness    : Big
    Codec ID                       : A_AC3
    Duration                       : 1h 47mn
    Bit rate mode                  : Constant
    Bit rate                       : 448 Kbps
    Channel(s)                     : 6 channels
    Channel positions              : Front: L C R, Side: L R, LFE
    Sampling rate                  : 48.0 KHz
    Bit depth                      : 16 bits
    Compression mode               : Lossy
    Delay relative to video        : -80ms
    Stream size                    : 344 MiB (19%)
    Language                       : Dutch
    Default                        : Yes
    Forced                         : No
    Text
    ID                             : 3
    Format                         : UTF-8
    Codec ID                       : S_TEXT/UTF8
    Codec ID/Info                  : UTF-8 Plain Text
    Title                          : Subtitles by Beyond the Scandinavian
    Language                       : Russian
    Default                        : Yes
    Forced                         : No
    Menu
    00:00:00.000                   : :00:00:00.000
    00:07:40.880                   : :00:07:40.800
    00:15:52.520                   : :00:15:52.440
    00:24:15.280                   : :00:24:15.160
    00:34:40.520                   : :00:34:40.440
    00:41:52.000                   : :00:41:51.920
    00:50:35.160                   : :00:50:35.080
    00:59:14.200                   : :00:59:14.040
    01:04:57.280                   : :01:04:57.200
    01:13:57.960                   : :01:13:57.880
    01:25:25.200                   : :01:25:25.120
    01:37:15.600                   : :01:37:15.440
    01:43:29.000                   : :01:43:28.800

    Отрывок субтитров

    878
    01:28:28,080 --> 01:28:32,759
    Но, какие бы решения мы ни приняли—
    879
    01:28:32,920 --> 01:28:36,879
    они зависят только от нас.
    880
    01:28:37,040 --> 01:28:41,599
    «Скажи нет» — подходящий слоган
    для кампаний против наркотиков.
    881
    01:28:41,760 --> 01:28:45,479
    Сами по себе наркотики
    не залетают в нос.
    882
    01:28:47,040 --> 01:28:52,559
    Сам по себе автомобиль не разгоняется
    до 180 км/ч. Это делает водитель.
    883
    01:28:54,000 --> 01:28:57,999
    Кенни Де Грот был не единственным
    ребенком в детдоме.
    884
    01:28:58,160 --> 01:29:01,639
    Сотни, если не тысячи детей жили там—
    885
    01:29:02,000 --> 01:29:05,199
    и воспитывались так,
    как позволяли обстоятельства.
    886
    01:29:06,000 --> 01:29:08,599
    Большинство из них оказались
    там не по своей воле.
    887
    01:29:08,960 --> 01:29:12,199
    Большинство из них были лишены детства.
    888
    01:29:12,360 --> 01:29:17,759
    Но стали они все ворами или убийцами?
    889
    01:29:17,920 --> 01:29:19,599
    Вряд ли.
    890
    01:29:26,840 --> 01:29:29,519
    У этого человека не осталось ничего.
    891
    01:29:30,000 --> 01:29:32,839
    До недавних пор у Люка Сегерса
    было все, что он хотел.
    892
    01:29:34,080 --> 01:29:36,799
    Красивая жена, потрясающая дочь.
    893
    01:29:37,000 --> 01:29:40,719
    Карьера, будущее.
    Его любили друзья и коллеги.
    894
    01:29:40,880 --> 01:29:44,759
    Он был «фундаментом общества».
    895
    01:29:47,000 --> 01:29:51,159
    Но будущее... забрали у него.

    Скриншот с названием

    Скриншоты


    Скачать .torrent

    Скачать торрент-файл бесплатно и на максимальной скорости!

    Как скачивать? · Что такое торрент? · Рейтинг и ограничения

    !ВНИМАНИЕ!
    Сайт не распространяет и не хранит электронные версии произведений, а занимается лишь лишь предоставлением доступа к создаваемому пользователями каталогу ссылок на торрент-файлы, которые содержат только списки хеш-сумм, убедительная просьба с жалобами обращаться напрямую к пользователю. Файлы для обмена на трекере предоставлены пользователями сайта, и администрация не несёт ответственности за их содержание. Просьба не заливать файлы, защищенные авторскими правами, а также файлы нелегального содержания!


    _________________
    [Профиль] [ЛС]
    Показать сообщения:    
    Ответить на тему

    Текущее время: Сегодня, в 08:15

    Часовой пояс: GMT + 2



    Вы не можете начинать темы
    Вы не можете отвечать на сообщения
    Вы не можете редактировать свои сообщения
    Вы не можете удалять свои сообщения
    Вы не можете голосовать в опросах
    Вы не можете прикреплять файлы к сообщениям
    Вы не можете скачивать файлы