BitTorrentTracker PerecTracker.org
BitTorrentTracker PerecTracker.org
    
Регистрация  ·  Вход
 
 · 
Забыли пароль?

  • Чудо / Zazrak / Miracle (Юрай Лехотски / Juraj Lehotsky) [2013, Словакия, Чехия, Драма, DVDRip] Sub Rus + Original Cze

    Ответить на тему
     
    Автор Сообщение

    Light

    Создавать темы 09-Мар-2015 18:07

           

    [Цитировать]

    Чудо / Zazrak (Zázrak) / Miracle
    Страна: Словакия, Чехия
    Жанр: Драма
    Год выпуска: 2013
    Продолжительность: 01:17:19
    Перевод: Субтитры: creo140
    Cубтитры: русские
    Оригинальная аудиодорожка: чешский
    Режиссер: Юрай Лехотски / Juraj Lehotsky
    В ролях: Михаэла Бендулова, Катарина Фельдикова, Эла Лехотски, Роберт Рот
    Описание: Элe - героине фильма "Чудо" всего 15 лет, а она уже мечтает о большой и светлой любви. Эла мечтает о полноценной жизни, но получается совсем не то, что она желает. Несмотря на все подарки судьбы, Эла уверена, что ее мечта сбудется. Она не унывает и не грустит в тоскливые моменты, а верит в чудо. Ведь главное - хранить сокровенную мечту в своем сердце.
    Доп. информация: http://www.kinopoisk.ru/film/780193/
    http://www.imdb.com/title/tt3012818/
    Сэмпл: http://multi-up.com/1037272
    Качество видео: DVDRip
    Формат видео: AVI
    Видео: Xvid 720x384 25fps 1999kbps
    Аудио: Dolby AC3 48000Hz 6ch 448kbps
    Формат субтитров: softsub (SRT)

    Фрагмент субтитров

    228
    00:35:40,240 --> 00:35:43,050
    Мама дома?
    - В магазине.
    229
    00:35:49,240 --> 00:35:52,244
    Что ты там делаешь?
    Открой!
    230
    00:35:53,840 --> 00:35:56,605
    Менты уже были здесь,
    искали тебя.
    231
    00:35:56,680 --> 00:35:58,728
    Ты ведь сбежала, так?
    232
    00:35:59,680 --> 00:36:01,603
    Ты слышишь меня?
    233
    00:36:04,400 --> 00:36:06,402
    Открой дверь.
    234
    00:36:10,400 --> 00:36:12,448
    Ты хочешь пойти со мной?
    235
    00:36:12,600 --> 00:36:14,807
    Тогда отвали,
    ты идиот.
    236
    00:36:33,080 --> 00:36:35,651
    Что ты здесь делаешь?
    237
    00:36:36,000 --> 00:36:37,604
    Я ухожу...
    238
    00:36:37,680 --> 00:36:40,889
    Ты никуда не пойдёшь!
    Я всё ещё твоя мать.
    239
    00:36:41,440 --> 00:36:42,407
    Ты нормальная?
    240
    00:36:42,480 --> 00:36:45,211
    Ты хочешь избить свою мать?
    241
    00:36:48,880 --> 00:36:51,850
    Я звоню в полицию.
    242
    00:37:06,600 --> 00:37:10,241
    Когда я выберусь из этого дерьма,
    я верну деньги.
    243
    00:37:20,800 --> 00:37:23,007
    Ты принёс мне всего 300 евро?

    MediaInfo

    Format : AVI
    Format/Info : Audio Video Interleave
    File size : 1.33 GiB
    Duration : 1h 17mn
    Overall bit rate : 2 455 Kbps
    Video
    ID : 0
    Format : MPEG-4 Visual
    Format profile : Advanced Simple@L5
    Format settings, BVOP : Yes
    Format settings, QPel : No
    Format settings, GMC : No warppoints
    Format settings, Matrix : Default (MPEG)
    Codec ID : XVID
    Codec ID/Hint : XviD
    Duration : 1h 17mn
    Bit rate : 1 999 Kbps
    Width : 720 pixels
    Height : 384 pixels
    Display aspect ratio : 1.85:1
    Frame rate : 25.000 fps
    Color space : YUV
    Chroma subsampling : 4:2:0
    Bit depth : 8 bits
    Scan type : Progressive
    Compression mode : Lossy
    Bits/(Pixel*Frame) : 0.289
    Stream size : 1.08 GiB (81%)
    Writing library : XviD 1.2.1 (UTC 2008-12-04)
    Audio
    ID : 1
    Format : AC-3
    Format/Info : Audio Coding 3
    Mode extension : CM (complete main)
    Format settings, Endianness : Big
    Codec ID : 2000
    Duration : 1h 17mn
    Bit rate mode : Constant
    Bit rate : 448 Kbps
    Channel(s) : 6 channels
    Channel positions : Front: L C R, Side: L R, LFE
    Sampling rate : 48.0 KHz
    Bit depth : 16 bits
    Compression mode : Lossy
    Stream size : 248 MiB (18%)
    Alignment : Aligned on interleaves
    Interleave, duration : 64 ms (1.60 video frames)
    Interleave, preload duration : 192 ms
    Title : Zazrak 2013 DD 5.1 AC3 448 kbps 25fps TTR

    Скриншот c названием фильма

    Скриншоты

    Скачать .torrent

    Скачать торрент-файл бесплатно и на максимальной скорости!

    Как скачивать? · Что такое торрент? · Рейтинг и ограничения

    !ВНИМАНИЕ!
    Сайт не распространяет и не хранит электронные версии произведений, а занимается лишь лишь предоставлением доступа к создаваемому пользователями каталогу ссылок на торрент-файлы, которые содержат только списки хеш-сумм, убедительная просьба с жалобами обращаться напрямую к пользователю. Файлы для обмена на трекере предоставлены пользователями сайта, и администрация не несёт ответственности за их содержание. Просьба не заливать файлы, защищенные авторскими правами, а также файлы нелегального содержания!


    _________________
    [Профиль] [ЛС]
    Показать сообщения:    
    Ответить на тему

    Текущее время: Сегодня, в 10:16

    Часовой пояс: GMT + 2



    Вы не можете начинать темы
    Вы не можете отвечать на сообщения
    Вы не можете редактировать свои сообщения
    Вы не можете удалять свои сообщения
    Вы не можете голосовать в опросах
    Вы не можете прикреплять файлы к сообщениям
    Вы не можете скачивать файлы