BitTorrentTracker PerecTracker.org
BitTorrentTracker PerecTracker.org
    
Регистрация  ·  Вход
 
 · 
Забыли пароль?

  • Золотая зима / Golden Winter (Сэм Мендоти / Sam Mendoti) [2012, США, Семейный, TVRip] DVO (телеканал Guili)

    Ответить на тему
     
    Автор Сообщение

    Light

    Создавать темы 08-Мар-2015 21:08

           

    [Цитировать]

    Золотая зима / Golden Winter
    Страна: США
    Жанр: Семейный
    Год выпуска: 2012
    Продолжительность: 01:25:07
    Перевод: Профессиональный (двухголосый закадровый) телеканал Guili
    Cубтитры: нет
    Режиссер: Сэм Мендоти / Sam Mendoti
    В ролях: Шеннон Элизабет, Джейсон Брукс, Фрэнк Бенц, Чарльз Бил, Сэм Эллиот Хавермалз, Джо Херсли
    Описание: В доме осталась собака (золотистый ретривер) со щенками после того, как из этого дома была выселена семья проживавших там людей. Банда детей, ищущая развлечений, забирается в этот дом. Там они пытаются привлечь в банду юного Оливера. Оливер находит этих щенков, ищущих свою мать, которую забрали в собачий приют из пустого дома. У Оливера проблемы с общением с вечно занятыми родителями и он начинает ухаживать за щенками. Оливер находит мать щенков и он надеется уговорить родителей оставить у них мать со щенками. Вместе со щенками Оливер помогает остановить ограбление банка во время Рождества, а затем родители позволяют Оливеру оставить у себя мать и щенков.
    Доп. информация: от 6 лет
    Сэмпл: https://www.sendspace.com/file/ly21bm
    Качество видео: TVRip
    Формат видео: AVI
    Видео: XviD, 720х400, 25,0 кадров/сек, 1050 Кбит/сек, 0.146 Бит/(Пиксели*Кадры)
    Аудио: MP3, 48,0 КГц, 160 Кбит/сек, 2 канала

    MediaInfo

    Общее
    Полное имя : C:\фильмы\02 возможно для раздачи\золотая зима\Золотая зима 2012г.avi
    Формат : AVI
    Формат/Информация : Audio Video Interleave
    Размер файла : 745 Мбайт
    Продолжительность : 1 ч. 25 м.
    Общий поток : 1223 Кбит/сек
    Видео
    Идентификатор : 0
    Формат : MPEG-4 Visual
    Профиль формата : Advanced Simple@L4
    Параметр BVOP формата : Нет
    Параметр QPel формата : Нет
    Параметр GMC формата : Без точки перехода
    Параметр матрицы формата : Default (H.263)
    Идентификатор кодека : XVID
    Идентификатор кодека/Подсказка : XviD
    Продолжительность : 1 ч. 25 м.
    Битрейт : 1050 Кбит/сек
    Ширина : 720 пикселей
    Высота : 400 пикселей
    Соотношение сторон : 16:9
    Частота кадров : 25,000 кадров/сек
    Цветовое пространство : YUV
    Субдискретизация насыщенности : 4:2:0
    Битовая глубина : 8 бит
    Тип развёртки : Прогрессивная
    Метод сжатия : С потерями
    Бит/(Пиксели*Кадры) : 0.146
    Размер потока : 639 Мбайт (86%)
    Аудио
    Идентификатор : 1
    Формат : MPEG Audio
    Версия формата : Version 1
    Профиль формата : Layer 3
    Идентификатор кодека : 55
    Идентификатор кодека/Подсказка : MP3
    Продолжительность : 1 ч. 25 м.
    Вид битрейта : Постоянный
    Битрейт : 160 Кбит/сек
    Каналы : 2 канала
    Частота : 48,0 КГц
    Метод сжатия : С потерями
    Размер потока : 97,4 Мбайт (13%)
    Выравнивание : Разделение по промежуткам
    Продолжительность промежутка : 24 мс. (0,60 видеокадр)

    Скриншот c названием фильма

    Скриншоты


    форум "фильмы о собаках и волках"

    http://perectracker.org/viewtopic.php?t=1144862

    предыдущие или аналогичные раздачи

    этого фильма пока нет
    Скачать .torrent

    Скачать торрент-файл бесплатно и на максимальной скорости!

    Как скачивать? · Что такое торрент? · Рейтинг и ограничения

    !ВНИМАНИЕ!
    Сайт не распространяет и не хранит электронные версии произведений, а занимается лишь лишь предоставлением доступа к создаваемому пользователями каталогу ссылок на торрент-файлы, которые содержат только списки хеш-сумм, убедительная просьба с жалобами обращаться напрямую к пользователю. Файлы для обмена на трекере предоставлены пользователями сайта, и администрация не несёт ответственности за их содержание. Просьба не заливать файлы, защищенные авторскими правами, а также файлы нелегального содержания!


    _________________
    [Профиль] [ЛС]
    Показать сообщения:    
    Ответить на тему

    Текущее время: Сегодня, в 19:58

    Часовой пояс: GMT + 2



    Вы не можете начинать темы
    Вы не можете отвечать на сообщения
    Вы не можете редактировать свои сообщения
    Вы не можете удалять свои сообщения
    Вы не можете голосовать в опросах
    Вы не можете прикреплять файлы к сообщениям
    Вы не можете скачивать файлы