BitTorrentTracker PerecTracker.org
BitTorrentTracker PerecTracker.org
    
Регистрация  ·  Вход
 
 · 
Забыли пароль?

  • Буль и Билл / Boule & Bill (Александр Шарло / Alexandre Charlot, Франк Манье / Franck Magnier) [2013, Франция, Бельгия, Люксембург, Семейный, комедия, HDRip] MVO

    Ответить на тему
     
    Автор Сообщение

    Light

    Создавать темы 08-Мар-2015 16:56

           

    [Цитировать]

    Буль и Билл / Boule & Bill
    Страна: Франция, Бельгия, Люксембург
    Жанр: Семейный, комедия
    Год выпуска: 2013
    Продолжительность: 01:22:04
    Перевод: Профессиональный (многоголосый закадровый)
    Cубтитры: нет
    Режиссер: Александр Шарло / Alexandre Charlot , Франк Манье / Franck Magnier
    В ролях: Франк Дюбоск, Марина Фоис, Николас Вод, Лионель Абелански, Маню Пайе, Сара Жиродо, Ален Серрер
    Описание: Фильм о дружбе между ребенком и его псом. У Била не было ни дома, ни семьи, пока, наконец, он не обрел себе и то, и другое после встречи с рыжеволосым мальчиком по имени Буль. Буль увидел его в приюте для собак, такого же рыжего, как и он сам и такого же приветливого. Для Буля и Билла эта встреча стала началом большой дружбы, а для родителей мальчика – началом больших неприятностей. Добро пожаловать в большое семейное приключение! В главной собачьей роли кокер-спаниель.
    Дополнение к описанию: ещё один фильм с говорящей собакой
    Сэмпл: http://multi-up.com/1036805
    Качество видео: HDRip
    Формат видео: AVI
    Видео: XVID, 720х304, 24,0 кадра/сек, 1090 Кбит/сек, 0.207 Бит/(Пиксели*Кадры)
    Аудио: MP3, 48,0 КГц, 160 Кбит/сек, 2 канала

    MediaInfo

    Полное имя : E:\Буль и Билл\Буль и Билл 2013г.avi
    Формат : AVI
    Формат/Информация : Audio Video Interleave
    Размер файла : 741 Мбайт
    Продолжительность : 1 ч. 22 м.
    Общий поток : 1262 Кбит/сек
    Видео
    Идентификатор : 0
    Формат : MPEG-4 Visual
    Профиль формата : Advanced Simple@L4
    Параметр BVOP формата : Нет
    Параметр QPel формата : Нет
    Параметр GMC формата : Без точки перехода
    Параметр матрицы формата : Default (H.263)
    Идентификатор кодека : XVID
    Идентификатор кодека/Подсказка : XviD
    Продолжительность : 1 ч. 22 м.
    Source_Duration/String : 1 ч. 22 м.
    Битрейт : 1090 Кбит/сек
    Ширина : 720 пикселей
    Высота : 304 пикселя
    Соотношение сторон : 2,35:1
    Частота кадров : 24,000 кадра/сек
    Цветовое пространство : YUV
    Субдискретизация насыщенности : 4:2:0
    Битовая глубина : 8 бит
    Тип развёртки : Прогрессивная
    Метод сжатия : С потерями
    Бит/(Пиксели*Кадры) : 0.207
    Размер потока : 640 Мбайт (86%)
    Аудио
    Идентификатор : 1
    Формат : MPEG Audio
    Версия формата : Version 1
    Профиль формата : Layer 3
    Идентификатор кодека : 55
    Идентификатор кодека/Подсказка : MP3
    Продолжительность : 1 ч. 22 м.
    Source_Duration/String : 1 ч. 22 м.
    Вид битрейта : Постоянный
    Битрейт : 160 Кбит/сек
    Каналы : 2 канала
    Частота : 48,0 КГц
    Метод сжатия : С потерями
    Размер потока : 93,9 Мбайт (13%)
    Выравнивание : Разделение по промежуткам
    Продолжительность промежутка : 24 мс. (0,58 видеокадр)

    Скриншот c названием фильма

    Скриншоты

    форум "фильмы о собаках и волках"

    http://perectracker.org/viewtopic.php?t=1144862

    Предыдущие или аналогичные раздачи

    этого фильма пока нет,
    есть много аналогичных фильмов с детьми и говорящей собакой
    Скачать .torrent

    Скачать торрент-файл бесплатно и на максимальной скорости!

    Как скачивать? · Что такое торрент? · Рейтинг и ограничения

    !ВНИМАНИЕ!
    Сайт не распространяет и не хранит электронные версии произведений, а занимается лишь лишь предоставлением доступа к создаваемому пользователями каталогу ссылок на торрент-файлы, которые содержат только списки хеш-сумм, убедительная просьба с жалобами обращаться напрямую к пользователю. Файлы для обмена на трекере предоставлены пользователями сайта, и администрация не несёт ответственности за их содержание. Просьба не заливать файлы, защищенные авторскими правами, а также файлы нелегального содержания!


    _________________
    [Профиль] [ЛС]
    Показать сообщения:    
    Ответить на тему

    Текущее время: Сегодня, в 07:51

    Часовой пояс: GMT + 2



    Вы не можете начинать темы
    Вы не можете отвечать на сообщения
    Вы не можете редактировать свои сообщения
    Вы не можете удалять свои сообщения
    Вы не можете голосовать в опросах
    Вы не можете прикреплять файлы к сообщениям
    Вы не можете скачивать файлы