BitTorrentTracker PerecTracker.org
BitTorrentTracker PerecTracker.org
    
Регистрация  ·  Вход
 
 · 
Забыли пароль?

  • Приключения Бэйли - Рождественский герой / Adventures of Bailey: Christmas Hero (Стив Франке / Steve Franke) [2012, США, Семейный TVRip] DVO

    Ответить на тему
     
    Автор Сообщение

    Light

    Создавать темы 08-Мар-2015 16:56

           

    [Цитировать]

    Приключения Бэйли (Бейли) - Рождественский герой / Adventures of Bailey: Christmas Hero
    Страна: США
    Жанр: Семейный
    Год выпуска: 2012
    Продолжительность: 01:22:43
    Перевод: Профессиональный (двухголосый закадровый)
    Cубтитры: нет
    Режиссер: Стив Франке / Steve Franke
    В ролях: Рик Шью, Трей Бампасс, Лиз Франке, Кристин Галиэн, Лизбет Карденас, Грант Джеймс, Юлия Эриксон, Кензи Пэллоун, Эндрю Хэйр, Сидни Рейнхарт
    Описание: Обеспокоенный тем, что он не получит никаких подарков от Санты потому что он был плохой собакой, Бейли узнаёт о загадочном волшебнике, который может исполнить его рождественские пожелания. С мыслями теннисных мячах и костях для собак он отправляется на поиски этого волшебника вместе с братом. Но это нарушает рождественские планы всей семьи, которая ищет пропавшего Бейли. Волшебным образом всё хорошо заканчивается.
    Сэмпл: http://multi-up.com/1036780
    Качество видео: TVRip
    Формат видео: AVI
    Видео: XviD, 720 х 416, 1119 Кбит/сек, 25,0 кадров/сек, 0.149 Бит/(Пиксели*Кадры)
    Аудио: MP3, 48,0 КГц, 128 Кбит/сек, 2 канала

    MediaInfo

    Общее
    Полное имя : E:\Приключения Бэйли - Рождественский герой.avi
    Формат : AVI
    Формат/Информация : Audio Video Interleave
    Размер файла : 746 Мбайт
    Продолжительность : 1 ч. 22 м.
    Общий поток : 1260 Кбит/сек
    Видео
    Идентификатор : 0
    Формат : MPEG-4 Visual
    Профиль формата : Advanced Simple@L4
    Параметр BVOP формата : Нет
    Параметр QPel формата : Нет
    Параметр GMC формата : Без точки перехода
    Параметр матрицы формата : Default (H.263)
    Идентификатор кодека : XVID
    Идентификатор кодека/Подсказка : XviD
    Продолжительность : 1 ч. 22 м.
    Битрейт : 1119 Кбит/сек
    Ширина : 720 пикселей
    Высота : 416 пикселей
    Соотношение сторон : 16:9
    Частота кадров : 25,000 кадров/сек
    Цветовое пространство : YUV
    Субдискретизация насыщенности : 4:2:0
    Битовая глубина : 8 бит
    Тип развёртки : Прогрессивная
    Метод сжатия : С потерями
    Бит/(Пиксели*Кадры) : 0.149
    Размер потока : 662 Мбайт (89%)
    Аудио
    Идентификатор : 1
    Формат : MPEG Audio
    Версия формата : Version 1
    Профиль формата : Layer 3
    Идентификатор кодека : 55
    Идентификатор кодека/Подсказка : MP3
    Продолжительность : 1 ч. 22 м.
    Вид битрейта : Постоянный
    Битрейт : 128 Кбит/сек
    Каналы : 2 канала
    Частота : 48,0 КГц
    Метод сжатия : С потерями
    Размер потока : 75,7 Мбайт (10%)
    Выравнивание : Разделение по промежуткам
    Продолжительность промежутка : 24 мс. (0,60 видеокадр)
    Библиотека кодирования : LAME3.98.2

    Скриншот c названием фильма

    Скриншоты


    форум "фильмы о собаках и волках"

    http://perectracker.org/viewtopic.php?t=1144862

    предыдущие или аналогичные раздачи

    Приключения Бэйли: Рождественский герой (в формате DVB)
    http://perectracker.org/viewtopic.php?t=4951358
    Скачать .torrent

    Скачать торрент-файл бесплатно и на максимальной скорости!

    Как скачивать? · Что такое торрент? · Рейтинг и ограничения

    !ВНИМАНИЕ!
    Сайт не распространяет и не хранит электронные версии произведений, а занимается лишь лишь предоставлением доступа к создаваемому пользователями каталогу ссылок на торрент-файлы, которые содержат только списки хеш-сумм, убедительная просьба с жалобами обращаться напрямую к пользователю. Файлы для обмена на трекере предоставлены пользователями сайта, и администрация не несёт ответственности за их содержание. Просьба не заливать файлы, защищенные авторскими правами, а также файлы нелегального содержания!


    _________________
    [Профиль] [ЛС]

    -746

    Создавать темы 16-Дек-2015 23:28 (спустя 9 месяцев 8 дней)

           

    Топик был перенесен из форума Фильмы 2011-2014 в форум Новогодние релизы - Фильмы, Мультфильмы


    -sasha2006

    _________________
    Как бы ты высоко не летал, не забывай, с кем ты ползал..
     
    Показать сообщения:    
    Ответить на тему

    Текущее время: Сегодня, в 07:12

    Часовой пояс: GMT + 2



    Вы не можете начинать темы
    Вы не можете отвечать на сообщения
    Вы не можете редактировать свои сообщения
    Вы не можете удалять свои сообщения
    Вы не можете голосовать в опросах
    Вы не можете прикреплять файлы к сообщениям
    Вы не можете скачивать файлы