BitTorrentTracker PerecTracker.org
BitTorrentTracker PerecTracker.org
    
Регистрация  ·  Вход
 
 · 
Забыли пароль?

  • Лесной змей / Wyrmwood (Кия Роуч-Тернер / Kiah Roache-Turner) [2014, Австралия / Australia, ужасы, боевик, WEB-DLRip] DVO (den904 & DeadSno)

    Ответить на тему
     
    Автор Сообщение

    Light

    Создавать темы 08-Мар-2015 16:56

           

    [Цитировать]

    Лесной змей / Wyrmwood
    Страна: Австралия / Australia
    Жанр: ужасы, боевик
    Год выпуска: 2014
    Продолжительность: 01:38:34
    Перевод : Любительский (двухголосый закадровый) den904 & DeadSno
    Cубтитры: нет
    Режиссер: Кия Роуч-Тернер / Kiah Roache-TurnerВ ролях:
    Джей Галлахер / Jay Gallagher - Barry
    Бьянка Брэди / Bianca Bradey - Brooke
    Леон Бурчилл / Leon Burchill - Benny
    Люк МакКензи / Luke McKenzie - The Captain
    Юр Кович / Yure Covich - Chalker
    Кит Агиус / Keith Agius - Frank
    Катрин Террачини / Catherine Terracini - Annie
    и др.
    Описание: Барри был талантливым механиком и семейным человеком, пока его жизнь не была разрушена в канун зомби-апокалипсиса. В дороге он объединяется с ещё одним выжившим, Чалкером, и вместе они вооружают себя, чтобы противостоять на своём пути орде плотоядных монстров, рыщущих в суровых австралийских зарослях.Доп. информация:
    ВНИМАНИЕ!!!НЕНОРМАТИВНАЯ ЛЕКСИКА!!!18+!!!
    Качество видео: WEB-DLRip [WEB-DL 720p]
    Формат видео: AVI
    Видео кодек: XviD
    Аудио кодек: AC3
    Видео: 720x400 (1,80:1), 23,976 fps, XviD, 1599 kbps avg, 0.232 bit/pixel
    Аудио : Rus 384.00 kbps avg, 48,0 kHz, 3/2 (L,C,R,l,r) + LFE ch, AC3 Dolby Digital DVO

    MediaInfo

    Общее
    Полное имя : C:\Лесной змей_Wyrmwood.2014.DVO.WEB-DLRip_by medvezhonokkkk.avi
    Формат : AVI
    Формат/Информация : Audio Video Interleave
    Размер файла : 1,37 Гбайт
    Продолжительность : 1 ч. 38 м.
    Общий поток : 1993 Кбит/сек
    Название фильма : RARBG.COM - Wyrmwood.Road.of.the.Dead.2014.WEB-DL.XviD.AC3-RARBG
    Программа кодирования : VirtualDubModRus 1.5.10.2 (build 2542/release)
    Библиотека кодирования : VirtualDubMod build 2542/release
    Примечание : RARBG.COM - Wyrmwood.Road.of.the.Dead.2014.WEB-DL.XviD.AC3-RARBG
    Видео
    Идентификатор : 0
    Формат : MPEG-4 Visual
    Профиль формата : Simple@L5
    Параметр BVOP формата : Нет
    Параметр QPel формата : Нет
    Параметр GMC формата : Без точки перехода
    Параметр матрицы формата : Default (H.263)
    Идентификатор кодека : XVID
    Идентификатор кодека/Подсказка : XviD
    Продолжительность : 1 ч. 38 м.
    Битрейт : 1599 Кбит/сек
    Ширина : 720 пикселей
    Высота : 400 пикселей
    Соотношение сторон : 16:9
    Частота кадров : 23,976 кадра/сек
    Цветовое пространство : YUV
    Субдискретизация насыщенности : 4:2:0
    Битовая глубина : 8 бит
    Тип развёртки : Прогрессивная
    Метод сжатия : С потерями
    Бит/(Пиксели*Кадры) : 0.232
    Размер потока : 1,10 Гбайт (80%)
    Библиотека кодирования : Lavc56.20.100
    Аудио
    Идентификатор : 1
    Формат : AC-3
    Формат/Информация : Audio Coding 3
    Расширение режима : CM (complete main)
    Параметр Endianness формата : Big
    Идентификатор кодека : 2000
    Продолжительность : 1 ч. 38 м.
    Вид битрейта : Постоянный
    Битрейт : 384 Кбит/сек
    Каналы : 6 каналов
    Расположение каналов : Front: L C R, Side: L R, LFE
    Частота : 48,0 КГц
    Битовая глубина : 16 бит
    Метод сжатия : С потерями
    Размер потока : 271 Мбайт (19%)
    Выравнивание : Разделение по промежуткам
    Продолжительность промежутка : 42 мс. (1,00 видеокадр)
    Время предзагрузки промежутка : 500 мс.

    Скриншот c названием фильма

    Скриншоты

    Скачать .torrent

    Скачать торрент-файл бесплатно и на максимальной скорости!

    Как скачивать? · Что такое торрент? · Рейтинг и ограничения

    !ВНИМАНИЕ!
    Сайт не распространяет и не хранит электронные версии произведений, а занимается лишь лишь предоставлением доступа к создаваемому пользователями каталогу ссылок на торрент-файлы, которые содержат только списки хеш-сумм, убедительная просьба с жалобами обращаться напрямую к пользователю. Файлы для обмена на трекере предоставлены пользователями сайта, и администрация не несёт ответственности за их содержание. Просьба не заливать файлы, защищенные авторскими правами, а также файлы нелегального содержания!


    _________________
    [Профиль] [ЛС]
    Показать сообщения:    
    Ответить на тему

    Текущее время: Сегодня, в 14:02

    Часовой пояс: GMT + 2



    Вы не можете начинать темы
    Вы не можете отвечать на сообщения
    Вы не можете редактировать свои сообщения
    Вы не можете удалять свои сообщения
    Вы не можете голосовать в опросах
    Вы не можете прикреплять файлы к сообщениям
    Вы не можете скачивать файлы