BitTorrentTracker PerecTracker.org
BitTorrentTracker PerecTracker.org
    
Регистрация  ·  Вход
 
 · 
Забыли пароль?

  • Мой лучший роман / A novel romance (Марк Гриффитс / Mark Griffiths) [2015, США, мелодрама, комедия, HDTVRip] VO (Lord32)

    Ответить на тему
     
    Автор Сообщение

    rechyn

    Создавать темы 08-Мар-2015 04:20

           

    [Цитировать]

    Мой лучший роман / A novel romance
    Страна: США
    Жанр: мелодрама, комедия
    Год выпуска: 2015
    Продолжительность: 01:23:20
    Перевод: Одноголосый закадровый Lord32
    Cубтитры: нет
    Режиссер: Марк Гриффитс / Mark Griffiths
    В ролях: Эми Экер, Дилан Брюс, Тэми Джиллис, Кейси Мандерсон, Чарльз Даттон
    Описание: Молодой и успешный писатель приезжает инкогнито в маленький городок, чтобы отдохнуть и преодолеть творческий кризис. Там он знакомится с прекрасной девушкой и у них начинается роман. Проблема в том, что он не может рассказать ей, кто он. Ведь она - известный критик и пишет разгромные рецензии на его произведения.
    Доп. информация: Полнометражный телевизионный фильм канала Hallmark
    Романтическая сказка для взрослых
    IMDB - 6,6
    Сэмпл
    Перевод: М.Васильев
    Озвучка: Lord32
    Релиз группа TRANSLATORS желает приятного просмотра

    Качество видео: HDTVRip
    Формат видео: AVI
    Видео: 2120 Kbps, 720x400 (16:9), 24 000 fps, MPEG 4 Visual XviD
    Аудио: 384 Kbps, 48.0 KHz, 16 bits, 6 ch, AC 3

    MediaInfo

    General
    Complete name : C:\Users\master\Documents\Downloads\A.Novel.Romance.2015.HDTVRip.1500MB.avi
    Format : AVI
    Format/Info : Audio Video Interleave
    File size : 1.46 GiB
    Duration : 1h 23mn
    Overall bit rate : 2 513 Kbps
    Writing application : VirtualDubMod 1.5.10.3 | (build 2550/release)
    Writing library : VirtualDubMod build 2550/release
    Video
    ID : 0
    Format : MPEG-4 Visual
    Format profile : Advanced Simple@L5
    Format settings, BVOP : 1
    Format settings, QPel : No
    Format settings, GMC : No warppoints
    Format settings, Matrix : Default (H.263)
    Codec ID : XVID
    Codec ID/Hint : XviD
    Duration : 1h 23mn
    Bit rate : 2 120 Kbps
    Width : 720 pixels
    Height : 400 pixels
    Display aspect ratio : 16:9
    Frame rate : 24.000 fps
    Color space : YUV
    Chroma subsampling : 4:2:0
    Bit depth : 8 bits
    Scan type : Progressive
    Compression mode : Lossy
    Bits/(Pixel*Frame) : 0.307
    Stream size : 1.23 GiB (84%)
    Writing library : XviD 1.2.1 (UTC 2008-12-04)
    Audio
    ID : 1
    Format : AC-3
    Format/Info : Audio Coding 3
    Mode extension : CM (complete main)
    Format settings, Endianness : Big
    Codec ID : 2000
    Duration : 1h 23mn
    Bit rate mode : Constant
    Bit rate : 384 Kbps
    Channel(s) : 6 channels
    Channel positions : Front: L C R, Side: L R, LFE
    Sampling rate : 48.0 KHz
    Bit depth : 16 bits
    Compression mode : Lossy
    Stream size : 229 MiB (15%)
    Alignment : Split accross interleaves
    Interleave, duration : 42 ms (1.00 video frame)
    Interleave, preload duration : 500 ms

    Скриншот c названием фильма

    Скриншоты



    Скачать .torrent

    Скачать торрент-файл бесплатно и на максимальной скорости!

    Как скачивать? · Что такое торрент? · Рейтинг и ограничения

    !ВНИМАНИЕ!
    Сайт не распространяет и не хранит электронные версии произведений, а занимается лишь лишь предоставлением доступа к создаваемому пользователями каталогу ссылок на торрент-файлы, которые содержат только списки хеш-сумм, убедительная просьба с жалобами обращаться напрямую к пользователю. Файлы для обмена на трекере предоставлены пользователями сайта, и администрация не несёт ответственности за их содержание. Просьба не заливать файлы, защищенные авторскими правами, а также файлы нелегального содержания!


    _________________
    [Профиль] [ЛС]
    Показать сообщения:    
    Ответить на тему

    Текущее время: Сегодня, в 20:21

    Часовой пояс: GMT + 2



    Вы не можете начинать темы
    Вы не можете отвечать на сообщения
    Вы не можете редактировать свои сообщения
    Вы не можете удалять свои сообщения
    Вы не можете голосовать в опросах
    Вы не можете прикреплять файлы к сообщениям
    Вы не можете скачивать файлы