BitTorrentTracker PerecTracker.org
BitTorrentTracker PerecTracker.org
    
Регистрация  ·  Вход
 
 · 
Забыли пароль?

  • Закон / La loi, le combat d\'une femme pour toutes les femmes (Кристиан Фор / Christian Faure) [2014, Франция, исторический, феминизм, биографический, драма, DVB] Original (Fre) + Sub (rus)

    Ответить на тему
     
    Автор Сообщение

    Light

    Создавать темы 07-Мар-2015 19:56

           

    [Цитировать]

    Закон
    La loi, le combat d'une femme pour toutes les femmes-Страна: Франция
    Жанр: исторический, феминизм, биографический, драма
    Год выпуска: 2014
    Продолжительность: 01:27:15
    Перевод: Субтитры (перевод М.Кузиной, Éclair Group)
    Cубтитры: русские
    Оригинальная аудиодорожка: французский
    Режиссер: Кристиан Фор / Christian Faure
    В ролях: Эммануэль Дево / Emmanuelle Devos (Simone Veil), Лоран Дойч / Lorànt Deutsch (Dominique Le Vert), Флор Бонавентура / Flore Bonaventura (Diane Riestrof), Ланник Готри / Lannick Gautry (Rémy Bourdon), Лионель Абелански / Lionel Abelanski (Antoine Veil), Микаэль Коэн / Michaël Cohen (Jacques Chirac), Жан-Поль Комар / Jean-Paul Comart (Pierre Juillet), Эрик Наггар / Eric Naggar (Michel Debré), Мишель Жоназ / Michel Jonasz (Gaston Deferre)Описание: Фильм имеет подзаголовок: "Борьба одной ради всех женщин". 29 ноября 1974 года Национальное собрание Франции приняло т.н. "закон Вейль", разрешающий аборты. Он был принят при активном участии тогдашнего министра здравоохранения Франции госпожи Симоны Вейль. Фильм приурочен к 40-летию принятия этого закона и показывает три дня ожесточенных дебатов при его рассмотрении.-Симона Вейль — французский юрист и политик, министр здравоохранения при Валери Жискар д'Эстене (1974—1979) и Франсуа Миттеране (1993—1995). В 1979 году на первых прямых выборах была избрана в Европарламент и затем его председателем, став первым председателем избираемого Европарламента и первой женщиной на этом посту со времён создания парламентской ассамблеи Европы в 1952 году. Была председателем Европарламента до 1982 года, депутатом — до 1993 года. Член Конституционного совета Франции (полный девятилетний срок 1998—2007). Побывавшая в детстве узницей концлагерей Освенцим и Берген-Бельзен, Симона Вейль является председателем национального комитета памяти Холокоста. С 2008 года член Французской академии.-Доп. информация: TV5MONDE DVB-S
    Номинация на "Хрустальный глобус" за лучший телефильм The Globes de Cristal Award 2015.

    Качество видео: DVB
    Формат видео: MKV
    Видео: MPEG Video 2, 704x576@1024x576 (16:9), 25 fps, ~2705 kbps avg, 0.267 bit/pixel
    Аудио: Французский (MPEG Audio 2, 2 ch, 48 kHz, ~192.00 kbps avg)
    Формат субтитров: hardsub (неотключаемые)

    MediaInfo

    ОбщееУникальный идентификатор : 232888753043883282109883751004982961856 (0xAF34BE08ABFE296890990E645EBB66C0)Полное имя : E:\My Torrents 2\[apreder]La_loi(2014)DVB.mkvФормат : MatroskaВерсия формата : Version 2Размер файла : 1,80 ГбайтПродолжительность : 1 ч. 27 м.Режим общего битрейта : ПеременныйОбщий поток : 2956 Кбит/секДата кодирования : UTC 2015-03-07 13:44:33Программа кодирования : mkvmerge v7.7.0 ('Six Voices') 64bit built on Feb 28 2015 23:39:33Библиотека кодирования : libebml v1.3.1 + libmatroska v1.4.2
    ВидеоИдентификатор : 1Формат : MPEG VideoВерсия формата : Version 2Профиль формата : Main@MainПараметр BVOP формата : ДаПараметр матрицы формата : ВыборочнаяПараметр GOP формата : M=3, N=15Format_Settings_PictureStructure : FrameИдентификатор кодека : V_MPEG2Идентификатор кодека/Информация : MPEG 1 or 2 VideoПродолжительность : 1 ч. 27 м.Вид битрейта : ПеременныйБитрейт : 2705 Кбит/секШирина : 704 пикселяВысота : 576 пикселейСоотношение сторон : 16:9Режим частоты кадров : ПостоянныйЧастота кадров : 25,000 кадров/секСтандарт вещания : PALЦветовое пространство : YUVСубдискретизация насыщенности : 4:2:0Битовая глубина : 8 битТип развёртки : ЧересстрочнаяПорядок развёртки : Верхнее поле первоеМетод сжатия : С потерямиБит/(Пиксели*Кадры) : 0.267Временной код первого кадра : 00:00:00:00Оригинал временного кода : Group of pictures headerРазмер потока : 1,65 Гбайт (92%)Default : ДаForced : НетGop_OpenClosed_FirstFrame : Closed
    АудиоИдентификатор : 2Формат : MPEG AudioВерсия формата : Version 1Профиль формата : Layer 2Идентификатор кодека : A_MPEG/L2Идентификатор кодека/Подсказка : MP2Продолжительность : 1 ч. 27 м.Вид битрейта : ПостоянныйБитрейт : 192 Кбит/секКаналы : 2 каналаЧастота : 48,0 КГцМетод сжатия : С потерямиРазмер потока : 120 Мбайт (6%)Язык : FrenchDefault : ДаForced : Нет

    Скриншот c названием фильма

    Скриншоты

    Резервные скриншоты


    -[2'162]
    Скачать .torrent

    Скачать торрент-файл бесплатно и на максимальной скорости!

    Как скачивать? · Что такое торрент? · Рейтинг и ограничения

    !ВНИМАНИЕ!
    Сайт не распространяет и не хранит электронные версии произведений, а занимается лишь лишь предоставлением доступа к создаваемому пользователями каталогу ссылок на торрент-файлы, которые содержат только списки хеш-сумм, убедительная просьба с жалобами обращаться напрямую к пользователю. Файлы для обмена на трекере предоставлены пользователями сайта, и администрация не несёт ответственности за их содержание. Просьба не заливать файлы, защищенные авторскими правами, а также файлы нелегального содержания!


    _________________
    [Профиль] [ЛС]
    Показать сообщения:    
    Ответить на тему

    Текущее время: Сегодня, в 22:48

    Часовой пояс: GMT + 2



    Вы не можете начинать темы
    Вы не можете отвечать на сообщения
    Вы не можете редактировать свои сообщения
    Вы не можете удалять свои сообщения
    Вы не можете голосовать в опросах
    Вы не можете прикреплять файлы к сообщениям
    Вы не можете скачивать файлы