BitTorrentTracker PerecTracker.org
BitTorrentTracker PerecTracker.org
    
Регистрация  ·  Вход
 
 · 
Забыли пароль?

  • Несносные боссы 2 / Horrible Bosses 2 (Шон Андерс / Sean Anders) [2014 г., США, комедия, BDRip-AVC] [Театральная версия / Theatrical Cut] Dub + AVO (Пучков) + Original Eng + Sub (Rus, Eng)

    Ответить на тему
     
    Автор Сообщение

    Light

    Создавать темы 06-Мар-2015 18:44

           

    [Цитировать]

    -Несносные боссы 2 / Horrible Bosses 2«Боссы - новые, методы - старые»Страна: США
    Студия: BenderSpink, New Line Cinema, RatPac Entertainment
    Жанр: Комедия
    Год выпуска: 2014
    Продолжительность: 01:48:27-Перевод 1: Профессиональный (полное дублирование), BD EUR
    Перевод 2: Авторский (одноголосый, закадровый) Д. "Гоблин" Пучков
    Оригинальная аудиодорожка: английская
    Cубтитры: русские, английские
    Режиссер: Шон Андерс / Sean Anders
    В ролях: Джейсон Бейтман, Джейсон Судейкис, Чарли Дэй, Крис Пайн, Дженнифер Энистон, Кристоф Вальц, Джейми Фокс, Кевин Спейси, Джонатан Бэнкс, Линдсей Слоун
    Описание: Ник, Дэйл и Курт решают сами стать боссами и открывают собственный бизнес. Но инвестор кидает их. Тогда они решают похитить его взрослого сына, чтобы получить выкуп и вернуть себе контроль над компанией.-
    Сэмпл: скачать-Релиз от -
    Автор рипа: Elheym
    Качество: BDRip-AVC (источник: / Blu-ray EUR [HORRIBLE_BOSSES_2_HDCLUB] / 1080p)
    Контейнер: MKV
    Видео: 1152x480 (2.40:1), 23.976 fps, MPEG-4 AVC, ~1990 kbps avg, 0.150 bit/pixel
    Аудио #1: Русский: AC3, 5.1, 48 kHz, ~448 Кбит/с | Профессиональный (полное дублирование), BD EUR |
    Аудио #2: Английский: AC3, 5.1, 48 kHz, ~448 Кбит/с | Оригинал |
    Аудио #3: Русский: AC3, 2.0, 48 kHz, ~192 Кбит/с | Авторский (одноголосый, закадровый) Д. "Гоблин" Пучков |
    Субтитры: русские (полные: BD, iTunes; форсированные: BD, iTunes), английские (полные, полные SDH, полные SDH цветные)
    Главы: Присутствуют, сохранены оригинальные

    MediaInfo

    Уникальный идентификатор : 215400495593125659662058402239364130829 (0xA20CA05F04B36BE09EBE4094B2DAE80D)
    Полное имя : Horrible.Bosses.2.TC.2014.DUAL.BDRip-AVC.x264.AC3.-HQCLUB.mkv
    Формат : Matroska
    Версия формата : Version 2
    Размер файла : 2,19 Гбайт
    Продолжительность : 1 ч. 48 м.
    Общий поток : 2886 Кбит/сек
    Дата кодирования : UTC 2015-03-06 06:44:38
    Программа кодирования : mkvmerge v5.2.0 ('I can't explain') built on Dec 18 2011 18:12:03
    Библиотека кодирования : libebml v1.2.3 + libmatroska v1.3.0
    Attachements : Cover.png
    Видео
    Идентификатор : 1
    Формат : AVC
    Формат/Информация : Advanced Video Codec
    Профиль формата : High@L4.0
    Параметр CABAC формата : Да
    Параметр ReFrames формата : 13 кадров
    Идентификатор кодека : V_MPEG4/ISO/AVC
    Продолжительность : 1 ч. 48 м.
    Битрейт : 1990 Кбит/сек
    Ширина : 1152 пикселя
    Высота : 480 пикселей
    Соотношение сторон : 2,40:1
    Режим частоты кадров : Постоянный
    Частота кадров : 23,976 кадра/сек
    Цветовое пространство : YUV
    Субдискретизация насыщенности : 4:2:0
    Битовая глубина : 8 бит
    Тип развёртки : Прогрессивная
    Бит/(Пиксели*Кадры) : 0.150
    Размер потока : 1,46 Гбайт (67%)
    Заголовок : Несносные боссы 2 / Horrible Bosses 2 (2014) [Theatrical Cut] BDRip-AVC by HQCLUB [Elheym]
    Библиотека кодирования : x264 core 146 r2538kMod 121396c
    Настройки программы : cabac=1 / ref=13 / deblock=1:-2:-1 / analyse=0x3:0x113 / me=umh / subme=11 / psy=1 / fade_compensate=0.00 / psy_rd=0.90:0.00 / mixed_ref=1 / me_range=32 / chroma_me=1 / trellis=2 / 8x8dct=1 / cqm=0 / deadzone=21,11 / fast_pskip=1 / chroma_qp_offset=-2 / threads=6 / lookahead_threads=1 / sliced_threads=0 / nr=0 / decimate=1 / interlaced=0 / bluray_compat=0 / constrained_intra=0 / fgo=0 / bframes=16 / b_pyramid=2 / b_adapt=2 / b_bias=0 / direct=3 / weightb=1 / open_gop=0 / weightp=2 / keyint=230 / keyint_min=23 / scenecut=40 / intra_refresh=0 / rc_lookahead=80 / rc=2pass / mbtree=0 / bitrate=1990 / ratetol=1.0 / qcomp=0.80 / qpmin=0 / qpmax=69 / qpstep=4 / cplxblur=20.0 / qblur=0.5 / vbv_maxrate=20000 / vbv_bufsize=25000 / nal_hrd=none / filler=0 / ip_ratio=1.40 / pb_ratio=1.30 / aq=3:0.90
    Язык : English
    Default : Да
    Forced : Нет
    Аудио #1
    Идентификатор : 2
    Формат : AC-3
    Формат/Информация : Audio Coding 3
    Расширение режима : CM (complete main)
    Параметр Endianness формата : Big
    Идентификатор кодека : A_AC3
    Продолжительность : 1 ч. 48 м.
    Вид битрейта : Постоянный
    Битрейт : 448 Кбит/сек
    Каналы : 6 каналов
    Расположение каналов : Front: L C R, Side: L R, LFE
    Частота : 48,0 КГц
    Битовая глубина : 16 бит
    Метод сжатия : С потерями
    Размер потока : 348 Мбайт (16%)
    Заголовок : АС3 5.1 @ 448 kbps - Dub, BD EUR
    Язык : Russian
    Default : Нет
    Forced : Нет
    Аудио #2
    Идентификатор : 3
    Формат : AC-3
    Формат/Информация : Audio Coding 3
    Расширение режима : CM (complete main)
    Параметр Endianness формата : Big
    Идентификатор кодека : A_AC3
    Продолжительность : 1 ч. 48 м.
    Вид битрейта : Постоянный
    Битрейт : 448 Кбит/сек
    Каналы : 6 каналов
    Расположение каналов : Front: L C R, Side: L R, LFE
    Частота : 48,0 КГц
    Битовая глубина : 16 бит
    Метод сжатия : С потерями
    Размер потока : 348 Мбайт (16%)
    Заголовок : АС3 5.1 @ 448 kbps - Original
    Язык : English
    Default : Нет
    Forced : Нет
    Текст #1
    Идентификатор : 4
    Формат : UTF-8
    Идентификатор кодека : S_TEXT/UTF8
    Идентификатор кодека/Информация : UTF-8 Plain Text
    Заголовок : Full, BD
    Язык : Russian
    Default : Нет
    Forced : Нет
    Текст #2
    Идентификатор : 5
    Формат : UTF-8
    Идентификатор кодека : S_TEXT/UTF8
    Идентификатор кодека/Информация : UTF-8 Plain Text
    Заголовок : Full, iTunes
    Язык : Russian
    Default : Нет
    Forced : Нет
    Текст #3
    Идентификатор : 6
    Формат : UTF-8
    Идентификатор кодека : S_TEXT/UTF8
    Идентификатор кодека/Информация : UTF-8 Plain Text
    Заголовок : Forced, BD
    Язык : Russian
    Default : Нет
    Forced : Нет
    Текст #4
    Идентификатор : 7
    Формат : UTF-8
    Идентификатор кодека : S_TEXT/UTF8
    Идентификатор кодека/Информация : UTF-8 Plain Text
    Заголовок : Forced, iTunes
    Язык : Russian
    Default : Нет
    Forced : Нет
    Текст #5
    Идентификатор : 8
    Формат : UTF-8
    Идентификатор кодека : S_TEXT/UTF8
    Идентификатор кодека/Информация : UTF-8 Plain Text
    Заголовок : Full
    Язык : English
    Default : Нет
    Forced : Нет
    Текст #6
    Идентификатор : 9
    Формат : UTF-8
    Идентификатор кодека : S_TEXT/UTF8
    Идентификатор кодека/Информация : UTF-8 Plain Text
    Заголовок : Full SDH
    Язык : English
    Default : Нет
    Forced : Нет
    Текст #7
    Идентификатор : 10
    Формат : UTF-8
    Идентификатор кодека : S_TEXT/UTF8
    Идентификатор кодека/Информация : UTF-8 Plain Text
    Заголовок : Full SDH Colored
    Язык : English
    Default : Нет
    Forced : Нет
    Меню
    00:00:00.000 : :Chapter 01
    00:06:52.161 : :Chapter 02
    00:18:51.880 : :Chapter 03
    00:28:37.549 : :Chapter 04
    00:38:21.799 : :Chapter 05
    00:47:15.749 : :Chapter 06
    00:56:34.015 : :Chapter 07
    01:05:24.170 : :Chapter 08
    01:13:48.340 : :Chapter 09
    01:21:49.988 : :Chapter 10
    01:29:31.866 : :Chapter 11
    01:36:27.323 : :Chapter 12
    01:39:43.143 : :Chapter 13
    01:48:26.082 : :Chapter 14

    x264 log

    x264 [info]: frame I:1652 Avg QP:13.75 size: 73292
    x264 [info]: frame P:33136 Avg QP:16.78 size: 21778
    x264 [info]: frame B:121209 Avg QP:19.19 size: 6379
    x264 [info]: consecutive B-frames: 2.2% 2.1% 6.0% 25.0% 18.0% 32.5% 5.7% 4.7% 1.3% 0.5% 0.4% 0.9% 0.2% 0.1% 0.0% 0.2% 0.1%
    x264 [info]: ref P L0: 45.5% 8.6% 17.9% 6.7% 5.6% 3.7% 3.4% 1.8% 1.9% 1.3% 1.2% 1.0% 1.2% 0.1% 0.0%
    x264 [info]: ref B L0: 68.1% 13.1% 6.3% 3.5% 2.4% 1.9% 1.4% 0.9% 1.1% 0.6% 0.4% 0.2%
    x264 [info]: ref B L1: 91.7% 8.3%

    Скриншоты

    Сравнения с исходником

    Источник- Рип-
    Цитата:
    Цитата:

    За подогнанную дорожку с авторским переводом Дмитрия "Гоблина" Пучкова спасибо - Vouka
    Скачать .torrent

    Скачать торрент-файл бесплатно и на максимальной скорости!

    Как скачивать? · Что такое торрент? · Рейтинг и ограничения

    !ВНИМАНИЕ!
    Сайт не распространяет и не хранит электронные версии произведений, а занимается лишь лишь предоставлением доступа к создаваемому пользователями каталогу ссылок на торрент-файлы, которые содержат только списки хеш-сумм, убедительная просьба с жалобами обращаться напрямую к пользователю. Файлы для обмена на трекере предоставлены пользователями сайта, и администрация не несёт ответственности за их содержание. Просьба не заливать файлы, защищенные авторскими правами, а также файлы нелегального содержания!


    _________________
    [Профиль] [ЛС]
    Показать сообщения:    
    Ответить на тему

    Текущее время: Сегодня, в 07:12

    Часовой пояс: GMT + 2



    Вы не можете начинать темы
    Вы не можете отвечать на сообщения
    Вы не можете редактировать свои сообщения
    Вы не можете удалять свои сообщения
    Вы не можете голосовать в опросах
    Вы не можете прикреплять файлы к сообщениям
    Вы не можете скачивать файлы