BitTorrentTracker PerecTracker.org
BitTorrentTracker PerecTracker.org
    
Регистрация  ·  Вход
 
 · 
Забыли пароль?

  • Ночь в музее: Секрет гробницы / Night at the Museum: Secret of the Tomb (Шон Леви / Shawn Levy) [2014, США, фэнтези, комедия, приключения, семейный, BDRip] Dub + Original (eng) + Sub (rus, eng)

    Ответить на тему
     
    Автор Сообщение

    Light

    Создавать темы 06-Мар-2015 10:20

           

    [Цитировать]

    Ночь в музее: Секрет гробницы / Night at the Museum: Secret of the Tomb«Эта ночь изменит всё»-Год выпуска: 2014
    Жанр: фэнтези, комедия, приключения, семейный
    Страна: США / Twentieth Century Fox Film Corporation
    Продолжительность: 01:37:48
    Перевод: Профессиональный (полное дублирование) iTunes
    Оригинальная аудиодорожка: английская
    Субтитры: русские (форс., полные с iTunes), английские (полные, SDH, цветные) |*srt|-Режиссёр: Шон Леви / Shawn Levy-В ролях: Бен Стиллер, Робин Уильямс, Оуэн Уилсон, Стив Куган, Рики Джервэйс, Дэн Стивенс, Ребел Уилсон, Скайлер Джизондо, Рами Малек, Патрик Галлахер, Мицуо Пек, Бен Кингсли, Кристал Манки, Дик Ван Дайк, Микки Руни, Билл Коббс, Андреа Мартин, Рэйчел Харрис, Мэтт Фрюэр, Брэд Гэррет, Реджина Тауфен, Перси Хайнс Уайт, Бреннан Эллиотт, Керри ван дер Грайнд, Мэттью Харрисон, Джоди Расикот, Рэнди Ли, Дэррил Квон, Пол Чи-пинг Чэн, Джералд Вонг-Описание: Ночной сторож Музея естественной истории в Нью-Йорке Ларри Дэйли в отчаянии: его друзья-экспонаты начинают странно себя вести, а всё потому, что оживляющая их древнеегипетская золотая пластина разрушается. Только отец фараона Ахкменра знает тайну магического артефакта, но вот беда — его мумия далеко, она выставлена в Британском музее естествознания! Команда любимых героев предпринимает беспрецедентное путешествие в Лондон. Они должны объединиться с британскими экспонатами и рискнуть всем, чтобы восстановить золотую пластину до того, как Ларри потеряет своих друзей навсегда.- -Сэмпл: http://multi-up.com/1036652-Качество: BDRip [исх. BDRemux / 1080p / HDCLUB]
    Формат: AVI
    Видео: 704x384 (1.83:1), 23.976 fps, XviD build 73 ~2287 kbps avg, 0.35 bit/pixel
    Аудио 1: 48 kHz, AC3 Dolby Digital, 3/2 (L,C,R,l,r) + LFE ch, ~384.00 kbps avg |DUB|
    Аудио 2: 48 kHz, AC3 Dolby Digital, 3/2 (L,C,R,l,r) + LFE ch, ~448.00 kbps avg |ENG|
    -

    Media Info

    Format                      : AVI
    Format/Info                 : Audio Video Interleave
    Format profile              : OpenDML
    File size                   : 2.14 GiB
    Duration                    : 1h 37mn
    Overall bit rate            : 3 136 Kbps
    Writing application         : VirtualDubMod 1.5.10.3 | www.virtualdub-fr.org || (build 2550/release)
    Writing library             : VirtualDubMod build 2550/release
    Video
    ID                          : 0
    Format                      : MPEG-4 Visual
    Format profile              : Advanced Simple@L5
    Format settings, BVOP       : 1
    Format settings, QPel       : No
    Format settings, GMC        : No warppoints
    Format settings, Matrix     : Custom
    Codec ID                    : XVID
    Codec ID/Hint               : XviD
    Duration                    : 1h 37mn
    Bit rate                    : 2 287 Kbps
    Width                       : 704 pixels
    Height                      : 384 pixels
    Display aspect ratio        : 1.85:1
    Frame rate                  : 23.976 fps
    Color space                 : YUV
    Chroma subsampling          : 4:2:0
    Bit depth                   : 8 bits
    Scan type                   : Progressive
    Compression mode            : Lossy
    Bits/(Pixel*Frame)          : 0.353
    Stream size                 : 1.56 GiB (73%)
    Writing library             : XviD 73
    Audio #1
    ID                          : 1
    Format                      : AC-3
    Format/Info                 : Audio Coding 3
    Mode extension              : CM (complete main)
    Format settings, Endianness : Big
    Codec ID                    : 2000
    Duration                    : 1h 37mn
    Bit rate mode               : Constant
    Bit rate                    : 384 Kbps
    Channel(s)                  : 6 channels
    Channel positions           : Front: L C R, Side: L R, LFE
    Sampling rate               : 48.0 KHz
    Bit depth                   : 16 bits
    Compression mode            : Lossy
    Stream size                 : 269 MiB (12%)
    Alignment                   : Split accross interleaves
    Interleave, duration        : 42 ms (1.00 video frame)
    Interleave, preload duratio : 500 ms
    Audio #2
    ID                          : 2
    Format                      : AC-3
    Format/Info                 : Audio Coding 3
    Mode extension              : CM (complete main)
    Format settings, Endianness : Big
    Codec ID                    : 2000
    Duration                    : 1h 37mn
    Bit rate mode               : Constant
    Bit rate                    : 448 Kbps
    Channel(s)                  : 6 channels
    Channel positions           : Front: L C R, Side: L R, LFE
    Sampling rate               : 48.0 KHz
    Bit depth                   : 16 bits
    Compression mode            : Lossy
    Stream size                 : 313 MiB (14%)
    Alignment                   : Split accross interleaves
    Interleave, duration        : 42 ms (1.00 video frame)
    Interleave, preload duratio : 500 ms

    Скриншоты

    Скачать .torrent

    Скачать торрент-файл бесплатно и на максимальной скорости!

    Как скачивать? · Что такое торрент? · Рейтинг и ограничения

    !ВНИМАНИЕ!
    Сайт не распространяет и не хранит электронные версии произведений, а занимается лишь лишь предоставлением доступа к создаваемому пользователями каталогу ссылок на торрент-файлы, которые содержат только списки хеш-сумм, убедительная просьба с жалобами обращаться напрямую к пользователю. Файлы для обмена на трекере предоставлены пользователями сайта, и администрация не несёт ответственности за их содержание. Просьба не заливать файлы, защищенные авторскими правами, а также файлы нелегального содержания!


    _________________
    [Профиль] [ЛС]
    Показать сообщения:    
    Ответить на тему

    Текущее время: Сегодня, в 16:31

    Часовой пояс: GMT + 2



    Вы не можете начинать темы
    Вы не можете отвечать на сообщения
    Вы не можете редактировать свои сообщения
    Вы не можете удалять свои сообщения
    Вы не можете голосовать в опросах
    Вы не можете прикреплять файлы к сообщениям
    Вы не можете скачивать файлы