BitTorrentTracker PerecTracker.org
BitTorrentTracker PerecTracker.org
    
Регистрация  ·  Вход
 
 · 
Забыли пароль?

  • Развод по-французски / L`ex de ma vie (Дороте Себба / Dorothée Sebbagh) [2014, Франция, Италия, комедия, мелодрама, WEB-DLRip] Dub (iTunes)

    Ответить на тему
     
    Автор Сообщение

    Light

    Создавать темы 06-Мар-2015 10:20

           

    [Цитировать]

    --Развод по-французски / L`ex de ma vie--«Конец - это только начало»-Страна: Франция, Италия
    Жанр: комедия, мелодрама
    Год выпуска: 2014
    Продолжительность: 01:19:00-Перевод: Профессиональный (дублированный) iTunes
    Cубтитры: нет-Режиссер: Дороте Себба / Dorothée Sebbagh-В ролях: Жеральдин Накаш, Ким Росси Стюарт, Паскаль Демолон, Софи Каттани, Катрин Жакоб, Жерар Дюбуш, Николь Феррони, Нора Хамзави, Эрик Фрей, Айса Буссетта
    Описание: Ариан и Нино никогда не были обычной парой. Они жили счастливо, вопреки обычаям: женитьба в джинсах, без свадебной церемонии. Нино — преподаватель начальной школы в маленькой деревушке недалеко от Рима, Ариан путешествует по миру в качестве концертирующей скрипачки. Все хорошо пока их принципиальные различия не взяли верх над их любовью. Два года спустя, Ариан поняла, что хочет выйти замуж и переехать в Америку с известным дирижером по имени Кристен, но для бракоразводного дела в Италии требуется 5 лет, в то время как во Франции 8 дней. Ариан предлагает Нино развестись. Он согласен лишь с одним условием: они проводят эти 8 дней в Париже, вместо медового месяца, которого у них никогда не было…-| Сэмпл | IMDB | КиноПоиск |-Качество видео: WEB-DLRip
    Формат видео: AVI
    Видео: 720x304 (2.37:1), 24 fps, XviD build 50 ~2060 kbps avg, 0.39 bit/pixel
    Аудио: 48 kHz, AC3 Dolby Digital, 3/2 (L,C,R,l,r) + LFE ch, ~384 kbps

    MediaInfo

    ОбщееПолное имя : F:\BD torrent\mytorrentsup\L'ex.de.ma.vie2014.WEB-DLRip.Rus.aviФормат : AVIФормат/Информация : Audio Video InterleaveРазмер файла : 1,37 ГбайтПродолжительность : 1 ч. 19 м.Общий поток : 2454 Кбит/секПрограмма кодирования : VirtualDubMod 1.5.10.2 (build 2540/release)Библиотека кодирования : VirtualDubMod build 2540/release
    ВидеоИдентификатор : 0Формат : MPEG-4 VisualПрофиль формата : Advanced Simple@L5Параметр BVOP формата : 2Параметр QPel формата : НетПараметр GMC формата : Без точки переходаПараметр матрицы формата : Default (MPEG)Идентификатор кодека : XVIDИдентификатор кодека/Подсказка : XviDПродолжительность : 1 ч. 19 м.Битрейт : 2061 Кбит/секШирина : 720 пикселейВысота : 304 пикселяСоотношение сторон : 2,35:1Частота кадров : 24,000 кадра/секЦветовое пространство : YUVСубдискретизация насыщенности : 4:2:0Битовая глубина : 8 битТип развёртки : ПрогрессивнаяМетод сжатия : С потерямиБит/(Пиксели*Кадры) : 0.392Размер потока : 1,15 Гбайт (84%)Библиотека кодирования : XviD 1.2.1 (UTC 2008-12-04)
    АудиоИдентификатор : 1Формат : AC-3Формат/Информация : Audio Coding 3Расширение режима : CM (complete main)Параметр Endianness формата : BigИдентификатор кодека : 2000Продолжительность : 1 ч. 19 м.Вид битрейта : ПостоянныйБитрейт : 384 Кбит/секКаналы : 6 каналовРасположение каналов : Front: L C R, Side: L R, LFEЧастота : 48,0 КГцБитовая глубина : 16 битМетод сжатия : С потерямиРазмер потока : 219 Мбайт (16%)Выравнивание : Разделение по промежуткамПродолжительность промежутка : 42 мс. (1,00 видеокадр)Время предзагрузки промежутка : 500 мс.

    Скриншот c названием фильма

    Скриншоты

    Скачать .torrent

    Скачать торрент-файл бесплатно и на максимальной скорости!

    Как скачивать? · Что такое торрент? · Рейтинг и ограничения

    !ВНИМАНИЕ!
    Сайт не распространяет и не хранит электронные версии произведений, а занимается лишь лишь предоставлением доступа к создаваемому пользователями каталогу ссылок на торрент-файлы, которые содержат только списки хеш-сумм, убедительная просьба с жалобами обращаться напрямую к пользователю. Файлы для обмена на трекере предоставлены пользователями сайта, и администрация не несёт ответственности за их содержание. Просьба не заливать файлы, защищенные авторскими правами, а также файлы нелегального содержания!


    _________________
    [Профиль] [ЛС]
    Показать сообщения:    
    Ответить на тему

    Текущее время: Сегодня, в 14:33

    Часовой пояс: GMT + 2



    Вы не можете начинать темы
    Вы не можете отвечать на сообщения
    Вы не можете редактировать свои сообщения
    Вы не можете удалять свои сообщения
    Вы не можете голосовать в опросах
    Вы не можете прикреплять файлы к сообщениям
    Вы не можете скачивать файлы