BitTorrentTracker PerecTracker.org
BitTorrentTracker PerecTracker.org
    
Регистрация  ·  Вход
 
 · 
Забыли пароль?

  • Выбор Адели / Le choix d\'Adele (Оливье Гиньяр / Olivier Guignard) [2011, Франция, драма, DVB] Original (Fre) + Sub (rus)

    Ответить на тему
     
    Автор Сообщение

    Light

    Создавать темы 06-Мар-2015 01:56

           

    [Цитировать]

    Выбор Адели
    Le choix d'Adèle-Страна: Франция
    Жанр: драма
    Год выпуска: 2011
    Продолжительность: 01:27:59
    Перевод: Субтитры (перевод И.Безлюдной, Éclair Group)
    Cубтитры: русские
    Оригинальная аудиодорожка: французский
    Режиссер: Оливье Гиньяр / Olivier GuignardВ ролях: Миу-Миу / Miou-Miou (Adèle), Луана Байрами / Luàna Bajrami (Kaniousha), Жак Эрлен / Jacques Herlin (Joseph), Мари-Элен Лентини / Marie-Hélène Lentini (Josiane), Элина Лёвенсон / Elina Löwensohn (Vlora), Марк Читти / Marc Citti (Olivier)
    Описание: Вот уже как два года после смерти мужа Адель полностью посвящает себя обучению детей. Как-то в середине учебного года к ней в класс пришла 8-летняя Канюша из семьи албанских беженцев, которая трудно интегрируется в уже сложившееся детское сообщество и раздражает Адель. Но, когда становится известно, что родителей девочки вместе с ней могут депортировать на родину, Адель принимает смелое решение…
    Доп. информация: TV5MONDE DVB-S

    Качество видео: DVB
    Формат видео: MKV
    Видео: MPEG Video 2, 704x576@1024x576 (16:9), 25 fps, ~2217 kbps avg, 0.219 bit/pixel
    Аудио: Французский (MPEG Audio 2, 2 ch, 48 kHz, ~192.00 kbps avg)
    Формат субтитров: hardsub (неотключаемые)

    MediaInfo

    ОбщееУникальный идентификатор : 253430704517835950298514929406942745369 (0xBEA8FA6FA0B8E64884CFB6DAEC619319)Полное имя : E:\My Torrents 2\[apreder]Le_choix_d'Adele(2011)DVB.mkvФормат : MatroskaВерсия формата : Version 2Размер файла : 1,51 ГбайтПродолжительность : 1 ч. 27 м.Режим общего битрейта : ПеременныйОбщий поток : 2458 Кбит/секДата кодирования : UTC 2015-03-05 14:11:27Программа кодирования : mkvmerge v7.7.0 ('Six Voices') 64bit built on Feb 28 2015 23:39:33Библиотека кодирования : libebml v1.3.1 + libmatroska v1.4.2
    ВидеоИдентификатор : 1Формат : MPEG VideoВерсия формата : Version 2Профиль формата : Main@MainПараметр BVOP формата : ДаПараметр матрицы формата : ВыборочнаяПараметр GOP формата : M=3, N=15Format_Settings_PictureStructure : FrameИдентификатор кодека : V_MPEG2Идентификатор кодека/Информация : MPEG 1 or 2 VideoПродолжительность : 1 ч. 27 м.Вид битрейта : ПеременныйБитрейт : 2217 Кбит/секШирина : 704 пикселяВысота : 576 пикселейСоотношение сторон : 16:9Режим частоты кадров : ПостоянныйЧастота кадров : 25,000 кадров/секСтандарт вещания : PALЦветовое пространство : YUVСубдискретизация насыщенности : 4:2:0Битовая глубина : 8 битТип развёртки : ЧересстрочнаяПорядок развёртки : Верхнее поле первоеМетод сжатия : С потерямиБит/(Пиксели*Кадры) : 0.219Временной код первого кадра : 00:00:00:00Оригинал временного кода : Group of pictures headerРазмер потока : 1,36 Гбайт (90%)Default : ДаForced : НетGop_OpenClosed_FirstFrame : Closed
    АудиоИдентификатор : 2Формат : MPEG AudioВерсия формата : Version 1Профиль формата : Layer 2Идентификатор кодека : A_MPEG/L2Идентификатор кодека/Подсказка : MP2Продолжительность : 1 ч. 27 м.Вид битрейта : ПостоянныйБитрейт : 192 Кбит/секКаналы : 2 каналаЧастота : 48,0 КГцМетод сжатия : С потерямиРазмер потока : 121 Мбайт (8%)Язык : FrenchDefault : ДаForced : Нет

    Скриншот c названием фильма

    Скриншоты

    Резервные скриншоты


    -[2'154]
    Скачать .torrent

    Скачать торрент-файл бесплатно и на максимальной скорости!

    Как скачивать? · Что такое торрент? · Рейтинг и ограничения

    !ВНИМАНИЕ!
    Сайт не распространяет и не хранит электронные версии произведений, а занимается лишь лишь предоставлением доступа к создаваемому пользователями каталогу ссылок на торрент-файлы, которые содержат только списки хеш-сумм, убедительная просьба с жалобами обращаться напрямую к пользователю. Файлы для обмена на трекере предоставлены пользователями сайта, и администрация не несёт ответственности за их содержание. Просьба не заливать файлы, защищенные авторскими правами, а также файлы нелегального содержания!


    _________________
    [Профиль] [ЛС]
    Показать сообщения:    
    Ответить на тему

    Текущее время: Сегодня, в 09:05

    Часовой пояс: GMT + 2



    Вы не можете начинать темы
    Вы не можете отвечать на сообщения
    Вы не можете редактировать свои сообщения
    Вы не можете удалять свои сообщения
    Вы не можете голосовать в опросах
    Вы не можете прикреплять файлы к сообщениям
    Вы не можете скачивать файлы