BitTorrentTracker PerecTracker.org
BitTorrentTracker PerecTracker.org
    
Регистрация  ·  Вход
 
 · 
Забыли пароль?

  • Большой Бак в 3Д / Big Buck Bunny 3D (Саха Гудегебуре / Sacha Goedegebure) [2008, Мультфильм, Короткометражка, Комедия, BDrip-AVC] Half OverUnder / Вертикальная анаморфная стереопара

    Ответить на тему
     
    Автор Сообщение

    Flirldrerve

    Создавать темы 03-Мар-2015 23:41

           

    [Цитировать]

    -Большой Бак
    Big Buck Bunny

    Год выпуска: 2008
    Страна: Нидерланды (Blender Foundation, Peach Open Movie Team)
    Жанр: Мультфильм, Короткометражка, Комедия
    Продолжительность: 0:10:09
    Перевод: Не требуется
    Режиссер: Саха Гудегебуре / Sacha Goedegebure-Описание: История о большом белом кролике, доброта которого больше чем он сам. В один солнечный день три грызуна начали издеваться над Баком…. и он понял: «С меня хватит!». Он приготовил ироничную месть для подлых грызунов…-Премьера: 10 апреля 2008
    Релиз на DVD: 17 сентября 2009
    Бюджет: €150 000

    ..
    За исходный ремукс спасибо S.V.O.!
    -Качество: BDRip (by Ash61)
    Контейнер: MKV
    Формат 3D: Half OverUnder / Вертикальная анаморфная стереопара
    Порядок ракурсов: левый ракурс первый
    Видео кодек: x264
    Аудио кодек: AC3-Видео: AVC / 23,976 fps / 1920х1080p / ~8.4 Mbps
    Аудио: AC3 / 48 KHz / 5.1 ch / 640 Kbps (Original)
    Субтитры: Отсутствуют

    MediaInfo

    General
    Unique ID : 225518238611914438773280402719353433173 (0xA9A93B9DAF133E3B96DF1AA701D16C55)
    Complete name : E:\BigBuckBunny(2008)3D-halfOU(Ash61).mkv
    Format : Matroska
    Format version : Version 2
    File size : 667 MiB
    Duration : 10mn 8s
    Overall bit rate : 9 193 Kbps
    Movie name : Большой Бак / Big Buck Bunny (2008) 3D
    Encoded date : UTC 2014-10-13 20:50:15
    Writing application : mkvmerge v5.8.0 ('No Sleep / Pillow') built on Sep 2 2012 15:37:04
    Writing library : libebml v1.2.3 + libmatroska v1.3.0
    Video
    ID : 1
    Format : AVC
    Format/Info : Advanced Video Codec
    Format profile : High@L4.1
    Format settings, CABAC : Yes
    Format settings, ReFrames : 4 frames
    Codec ID : V_MPEG4/ISO/AVC
    Duration : 10mn 8s
    Bit rate : 8 371 Kbps
    Width : 1 920 pixels
    Height : 1 080 pixels
    Display aspect ratio : 16:9
    Frame rate mode : Constant
    Frame rate : 23.976 fps
    Color space : YUV
    Chroma subsampling : 4:2:0
    Bit depth : 8 bits
    Scan type : Progressive
    Bits/(Pixel*Frame) : 0.168
    Stream size : 607 MiB (91%)
    Title : BDRip by Ash61
    Writing library : x264 core 138 r2358 9e941d1
    Encoding settings : cabac=1 / ref=4 / deblock=1:-3:-3 / analyse=0x3:0x113 / me=umh / subme=10 / psy=1 / psy_rd=1.00:0.15 / mixed_ref=1 / me_range=32 / chroma_me=1 / trellis=2 / 8x8dct=1 / cqm=0 / deadzone=21,11 / fast_pskip=1 / chroma_qp_offset=-3 / threads=12 / lookahead_threads=2 / sliced_threads=0 / nr=0 / decimate=1 / interlaced=0 / bluray_compat=0 / constrained_intra=0 / bframes=9 / b_pyramid=2 / b_adapt=2 / b_bias=0 / direct=3 / weightb=1 / open_gop=0 / weightp=2 / keyint=250 / keyint_min=23 / scenecut=40 / intra_refresh=0 / rc_lookahead=60 / rc=crf / mbtree=1 / crf=16.5 / qcomp=0.70 / qpmin=0 / qpmax=69 / qpstep=4 / vbv_maxrate=40000 / vbv_bufsize=30000 / crf_max=0.0 / nal_hrd=none / frame-packing=4 / ip_ratio=1.40 / aq=1:0.70
    Default : Yes
    Forced : No
    Audio
    ID : 2
    Format : AC-3
    Format/Info : Audio Coding 3
    Mode extension : CM (complete main)
    Format settings, Endianness : Big
    Codec ID : A_AC3
    Duration : 10mn 8s
    Bit rate mode : Constant
    Bit rate : 640 Kbps
    Channel(s) : 6 channels
    Channel positions : Front: L C R, Side: L R, LFE
    Sampling rate : 48.0 KHz
    Bit depth : 16 bits
    Compression mode : Lossy
    Stream size : 46.4 MiB (7%)
    Title : Original
    Default : Yes
    Forced : No

    Скриншоты

    Для оценки 3Д - Анимированные скрины







    Скачать .torrent

    Скачать торрент-файл бесплатно и на максимальной скорости!

    Как скачивать? · Что такое торрент? · Рейтинг и ограничения

    !ВНИМАНИЕ!
    Сайт не распространяет и не хранит электронные версии произведений, а занимается лишь лишь предоставлением доступа к создаваемому пользователями каталогу ссылок на торрент-файлы, которые содержат только списки хеш-сумм, убедительная просьба с жалобами обращаться напрямую к пользователю. Файлы для обмена на трекере предоставлены пользователями сайта, и администрация не несёт ответственности за их содержание. Просьба не заливать файлы, защищенные авторскими правами, а также файлы нелегального содержания!


    _________________
    [Профиль] [ЛС]
    Показать сообщения:    
    Ответить на тему

    Текущее время: Сегодня, в 10:13

    Часовой пояс: GMT + 2



    Вы не можете начинать темы
    Вы не можете отвечать на сообщения
    Вы не можете редактировать свои сообщения
    Вы не можете удалять свои сообщения
    Вы не можете голосовать в опросах
    Вы не можете прикреплять файлы к сообщениям
    Вы не можете скачивать файлы