BitTorrentTracker PerecTracker.org
BitTorrentTracker PerecTracker.org
    
Регистрация  ·  Вход
 
 · 
Забыли пароль?

  • Варвара-краса, длинная коса (Александр Роу) [1969, фильм-сказка, DVDRip-AVC]

    Ответить на тему
     
    Автор Сообщение

    -sasha2006

    Создавать темы 08-Мар-2013 20:56

           

    [Цитировать]

    Варвара-краса, длинная коса
    Жанр: фильм-сказка
    Год выпуска: 1969 (премьера 30 декабря 1970)
    Страна: СССР
    Продолжительность: 01:20:18
    Субтитры: русский, английский, французский, немецкий, испанский, итальянский, португальский, нидерландский
    Режиссёр: Александр Роу
    Сценарий: Михаил Чуприн, Александр Роу, Василий Жуковский
    Оператор: Дмитрий Суренский
    Композитор: Аркадий Филиппенко
    Художник: А. Иващенко, Арсений Клопотовский-В ролях: Михаил Пуговкин, Георгий Милляр, Анатолий Кубацкий, Лидия Королева, Сергей Николаев, Татьяна Клюева, Варвара Попова, Александр Хвыля, Борис Сичкин, Валентина Ананьина.-Описание: Жил да был царь Еремей. Отправился он в годовой поход, чтобы составить опись своего царства-государства. Наклонился он как-то к колодцу напиться, но тут его и схватил подводный царь Чудо — Юдо. Да потребовал выкуп за освобождение — такой, о чем Еремей не ведал и не гадал, что оно есть в его царстве. Царь согласился, еще не зная, что в его отсутствие царица родила ему сына.
    Фильм рассказывает о том, как несмотря на всевозможные коварства и интриги, Андрей рыбацкий сын и Варвара повстречались и полюбили друг друга, как царю Еремею пришлось краснеть за своего ленивого и глупого наследника, и как в конце концов все закончилось хорошо.--Образец №1 (sample), 2 минуты, 45.5 МБ
    Образец №2 (sample), 2 минуты, 41.4 МБ
    Внимание, на большинстве бытовых DVD-проигрывателей отсутствует поддержка MKV/X264 из этой раздачи.
    Качество видео: DVDRip-AVC
    Формат видео: MKV (1.45Гб)
    Видео: x264, 696x568 (2.25:1 анаморфное), 2147кбит/с, 25 кадр/с
    Аудио 1: русский, AC3, 48кгц, 448кбит/с, 5.1
    Субтитры 1: Russian, SRT (Win1251)
    Субтитры 2: Francais, SRT (Win1252)
    Субтитры 3: English, SRT (Win1252)
    Субтитры 4: Deutsch, SRT (Win1252)
    Субтитры 5: Espanol, SRT (Win1252)
    Субтитры 6: Italiano, SRT (Win1252)
    Субтитры 7: Portugues, SRT (Win1252)
    Субтитры 8: Nederlands, SRT (Win1252)
    Аудио 2 (отдельным файлом): английский (дубляж), AC3, 48кгц, 448кбит/с, 5.1
    Аудио 3 (отдельным файлом): испанский (дубляж), AC3, 48кгц, 448кбит/с, 5.1
    Аудио 4 (отдельным файлом): французский (дубляж), AC3, 48кгц, 448кбит/с, 5.1

    MediaInfo

    Format : Matroska
    File size : 1.46 GiB
    Duration : 1h 20mn
    Overall bit rate : 2 599 Kbps
    Movie name : Варвара-краса, длинная коса (1969)
    Encoded date : UTC 2010-11-28 20:23:45
    Writing application : mkvmerge v2.2.0 ('Turn It On Again') built on Mar 4 2008 12:58:26
    Writing library : libebml v0.7.7 + libmatroska v0.8.1
    Video
    ID : 1
    Format : AVC
    Format/Info : Advanced Video Codec
    Format profile : High@L3.0
    Format settings, CABAC : Yes
    Format settings, ReFrames : 4 frames
    Muxing mode : Container profile=Unknown@3.0
    Codec ID : V_MPEG4/ISO/AVC
    Duration : 1h 20mn
    Bit rate : 2 099 Kbps
    Width : 696 pixels
    Height : 568 pixels
    Display aspect ratio : 2.25:1
    Original display aspect ratio : 1.225
    Frame rate : 25.000 fps
    Resolution : 24 bits
    Colorimetry : 4:2:0
    Scan type : Progressive
    Bits/(Pixel*Frame) : 0.212
    Stream size : 1.18 GiB (81%)
    Title : ~2147 kbit/s
    Writing library : x264 core 68 r1181M 49bf767
    Encoding settings : cabac=1 / ref=4 / deblock=1:-2:-1 / analyse=0x3:0x133 / me=umh / subme=9 / psy_rd=1.0:0.0 / mixed_ref=1 / me_range=16 / chroma_me=0 / trellis=2 / 8x8dct=1 / cqm=0 / deadzone=21,11 / chroma_qp_offset=-4 / threads=6 / nr=0 / decimate=1 / mbaff=0 / bframes=4 / b_pyramid=1 / b_adapt=2 / b_bias=0 / direct=1 / wpredb=1 / keyint=250 / keyint_min=25 / scenecut=40 / rc=crf / crf=21.0 / qcomp=0.60 / qpmin=10 / qpmax=51 / qpstep=4 / ip_ratio=1.40 / pb_ratio=1.30 / aq=1:1.00
    Language : Russian
    Audio
    ID : 2
    Format : AC-3
    Format/Info : Audio Coding 3
    Codec ID : A_AC3
    Duration : 1h 20mn
    Bit rate mode : Constant
    Bit rate : 448 Kbps
    Channel(s) : 6 channels
    Channel positions : Front: L C R, Surround: L R, LFE
    Sampling rate : 48.0 KHz
    Stream size : 257 MiB (17%)
    Title : Original
    Language : Russian
    Text #1
    ID : 3
    Format : UTF-8
    Codec ID : S_TEXT/UTF8
    Codec ID/Info : UTF-8 Plain Text
    Title : Russian
    Language : Russian
    Text #2
    ID : 4
    Format : UTF-8
    Codec ID : S_TEXT/UTF8
    Codec ID/Info : UTF-8 Plain Text
    Title : Francais
    Language : French
    Text #3
    ID : 5
    Format : UTF-8
    Codec ID : S_TEXT/UTF8
    Codec ID/Info : UTF-8 Plain Text
    Title : English
    Language : English
    Text #4
    ID : 6
    Format : UTF-8
    Codec ID : S_TEXT/UTF8
    Codec ID/Info : UTF-8 Plain Text
    Title : Deutsch
    Language : German
    Text #5
    ID : 7
    Format : UTF-8
    Codec ID : S_TEXT/UTF8
    Codec ID/Info : UTF-8 Plain Text
    Title : Espanol
    Language : Spanish
    Text #6
    ID : 8
    Format : UTF-8
    Codec ID : S_TEXT/UTF8
    Codec ID/Info : UTF-8 Plain Text
    Title : Italiano
    Language : Italian
    Text #7
    ID : 9
    Format : UTF-8
    Codec ID : S_TEXT/UTF8
    Codec ID/Info : UTF-8 Plain Text
    Title : Portugues
    Language : Portuguese
    Text #8
    ID : 10
    Format : UTF-8
    Codec ID : S_TEXT/UTF8
    Codec ID/Info : UTF-8 Plain Text
    Title : Nederlands
    Language : Dutch

    Скриншоты AVC (анаморфное, при воспроизведении)

    Как добавить дополнительные файлы к основному?

    Читать здесь ->

    Для монтажа доп. файлов достаточно программы mkvToolNix (ссылка на дистрибутив для Windows):
    Добавляем файлы при помощи кнопки "add" (или перетаскиваем в окно программы), оставляем галочки там где нужно, кнопками "Up / Down" выстраиваем потоки в нужном порядке. На вкладке "Format specific options" в поле "Delay (in ms)" смещение звука автоматически установится при добавлении файла с именем "...DELAY ***ms..." (если не указано, оставить 0).

    иллюстрация

    На закладке "General track option" можно выставить следующие параметры:
    • "Default track flag" - если выставить в значение "yes", то поток будет проигрываться по-умолчанию.
    • "Track name" - наименование потока, например, "Комментарии режиссера", "Дубляж", "Закадровый"...
    • "Language" - язык потока.

    иллюстрация


    FAQ по просмотру MKV/h.264 / AAC
    Скачать .torrent

    Скачать торрент-файл бесплатно и на максимальной скорости!

    Как скачивать? · Что такое торрент? · Рейтинг и ограничения

    !ВНИМАНИЕ!
    Сайт не распространяет и не хранит электронные версии произведений, а занимается лишь лишь предоставлением доступа к создаваемому пользователями каталогу ссылок на торрент-файлы, которые содержат только списки хеш-сумм, убедительная просьба с жалобами обращаться напрямую к пользователю. Файлы для обмена на трекере предоставлены пользователями сайта, и администрация не несёт ответственности за их содержание. Просьба не заливать файлы, защищенные авторскими правами, а также файлы нелегального содержания!


    _________________

    ░▒▓█▀▄▀▄▀▄█▓▒░
    [Профиль] [ЛС]
    Показать сообщения:    
    Ответить на тему

    Текущее время: Сегодня, в 19:57

    Часовой пояс: GMT + 2



    Вы не можете начинать темы
    Вы не можете отвечать на сообщения
    Вы не можете редактировать свои сообщения
    Вы не можете удалять свои сообщения
    Вы не можете голосовать в опросах
    Вы не можете прикреплять файлы к сообщениям
    Вы не можете скачивать файлы