BitTorrentTracker PerecTracker.org
BitTorrentTracker PerecTracker.org
    
Регистрация  ·  Вход
 
 · 
Забыли пароль?

  • Призрак в доспехах: Синдром одиночки 3D / Kôkaku kidôtai S.A.C. Solid State Society 3D (Кэндзи Камияма / Kenji Kamiyama) [2006, Фантастика, Приключение, Аниме, BDrip-AVC] Half SideBySide / Горизонтальная анаморфная стереопа

    Ответить на тему
     
    Автор Сообщение

    Flirldrerve

    Создавать темы 03-Мар-2015 23:41

           

    [Цитировать]

    Призрак в доспехах: Синдром одиночки 3D / Kôkaku kidôtai S.A.C. Solid State Society 3D
    Год выпуска: 2006. 3D переиздание 2011.
    Страна: Япония
    Студия: Production I.G
    Жанр: Фантастика, Приключение, Аниме
    Продолжительность: 01:48:24
    Перевод: Профессиональный (многоголосый закадровый)
    Русские субтитры: нет
    Режиссер на русском: Кэндзи Камияма
    Режиссер на английском: Kenji Kamiyama
    Описание: Спустя два года после ухода Мотоко Кусанаги из 9 отдела, команда сталкивается с новым делом, в центре которого фигурирует таинственный хакер по прозвищу Кукловод. Расследование массового похищения детей приводит к теневой организации, называемой Сообщество Крепкого Государства. Ниточки глобального заговора сводят вместе старых коллег, заставляя вновь делать непростой выбор между законом и справедливостью.
    Качество: BDrip
    Контейнер: MKV
    Формат 3D: Горизонтальная анаморфная стереопара
    Порядок ракурсов: левый ракурс первый
    Видео кодек: h.264
    Аудио кодек: MP3
    Видео: MPEG4 Video (H264), 1920x1080, 23.98fps, Bitrate 10.4 Мбит/с
    Аудио: Rus: MPEG Audio Layer 3, 48000Hz, stereo 2 channels, Bitrate 224 Кбит/с
    Субтитры: Отсутствуют

    Дополнительно

    Год выпуска: 2006. Переиздание в 3D формате в 2011 году. Кинопоиск.

    MediaInfo

    General
    Unique ID : 205650905610324140654912239466100253221 (0x9AB6EC78F2D0CC60AD703A5243F76225)
    Complete name : D:\Video\Ghost in the shell part 3 Solid state societ 3D.mkv
    Format : Matroska
    Format version : Version 2
    File size : 8.23 GiB
    Duration : 1h 48mn
    Overall bit rate : 10.8 Mbps
    Encoded date : UTC 2013-03-15 20:15:50
    Writing application : mkvmerge v4.0.0 ('The Stars were mine') сборка от Jun 6 2010 16:18:42
    Writing library : libebml v1.0.0 + libmatroska v1.0.0
    Video
    ID : 1
    Format : AVC
    Format/Info : Advanced Video Codec
    Format profile : High@L4.1
    Format settings, CABAC : Yes
    Format settings, ReFrames : 4 frames
    Codec ID : V_MPEG4/ISO/AVC
    Duration : 1h 48mn
    Bit rate : 10.4 Mbps
    Nominal bit rate : 11.0 Mbps
    Width : 1 920 pixels
    Height : 1 080 pixels
    Display aspect ratio : 16:9
    Frame rate : 23.976 fps
    Color space : YUV
    Chroma subsampling : 4:2:0
    Bit depth : 8 bits
    Scan type : Progressive
    Bits/(Pixel*Frame) : 0.209
    Stream size : 7.89 GiB (96%)
    Title : cnliti
    Writing library : x264 core 104 r1713 c276662
    Encoding settings : cabac=1 / ref=3 / deblock=1:0:0 / analyse=0x3:0x113 / me=hex / subme=7 / psy=1 / psy_rd=1.00:0.00 / mixed_ref=1 / me_range=16 / chroma_me=1 / trellis=1 / 8x8dct=1 / cqm=0 / deadzone=21,11 / fast_pskip=1 / chroma_qp_offset=-2 / threads=9 / sliced_threads=0 / nr=0 / decimate=1 / interlaced=0 / constrained_intra=0 / bframes=3 / b_pyramid=2 / b_adapt=1 / b_bias=0 / direct=1 / weightb=1 / open_gop=0 / weightp=2 / keyint=250 / keyint_min=23 / scenecut=40 / intra_refresh=0 / rc_lookahead=40 / rc=abr / mbtree=1 / bitrate=11000 / ratetol=1.0 / qcomp=0.60 / qpmin=10 / qpmax=51 / qpstep=4 / ip_ratio=1.40 / aq=1:1.00
    Language : Japanese
    Audio
    ID : 2
    Format : MPEG Audio
    Format version : Version 1
    Format profile : Layer 3
    Mode : Joint stereo
    Mode extension : MS Stereo
    Codec ID : A_MPEG/L3
    Codec ID/Hint : MP3
    Duration : 1h 48mn
    Bit rate mode : Constant
    Bit rate : 224 Kbps
    Channel(s) : 2 channels
    Sampling rate : 48.0 KHz
    Compression mode : Lossy
    Delay relative to video : 10s 0ms
    Stream size : 174 MiB (2%)
    Writing library : LAME3.98.2

    Скриншоты

    Скачать .torrent

    Скачать торрент-файл бесплатно и на максимальной скорости!

    Как скачивать? · Что такое торрент? · Рейтинг и ограничения

    !ВНИМАНИЕ!
    Сайт не распространяет и не хранит электронные версии произведений, а занимается лишь лишь предоставлением доступа к создаваемому пользователями каталогу ссылок на торрент-файлы, которые содержат только списки хеш-сумм, убедительная просьба с жалобами обращаться напрямую к пользователю. Файлы для обмена на трекере предоставлены пользователями сайта, и администрация не несёт ответственности за их содержание. Просьба не заливать файлы, защищенные авторскими правами, а также файлы нелегального содержания!


    _________________
    [Профиль] [ЛС]
    Показать сообщения:    
    Ответить на тему

    Текущее время: Сегодня, в 08:06

    Часовой пояс: GMT + 2



    Вы не можете начинать темы
    Вы не можете отвечать на сообщения
    Вы не можете редактировать свои сообщения
    Вы не можете удалять свои сообщения
    Вы не можете голосовать в опросах
    Вы не можете прикреплять файлы к сообщениям
    Вы не можете скачивать файлы