BitTorrentTracker PerecTracker.org
BitTorrentTracker PerecTracker.org
    
Регистрация  ·  Вход
 
 · 
Забыли пароль?

  • История эльфа: Эльф на полке в 3Д / An Elf\'s Story: The Elf on the Shelf 3D (Чад Эйкхофф / Chad Eikhoff) [2011, Мультфильм, Семейный, BDrip-AVC] Eng, Half OverUnder / Вертикальная анаморфная стереопара

    Ответить на тему
     
    Автор Сообщение

    Flirldrerve

    Создавать темы 03-Мар-2015 23:40

           

    [Цитировать]

    История эльфа: Эльф на полке
    An Elf's Story: The Elf on the Shelf

    Год выпуска: 2011
    Страна: США (Big Canoe Entertainment, Trick 3D)
    Жанр: Мультфильм, Семейный
    Продолжительность: 0:26:12
    Перевод: Отсутствует
    Режиссер: Чад Эйкхофф / Chad Eikhoff
    Роли озвучивали: Брендан Дулинг (Chippey), Майкл Мэй (Taylor), Doug Williams (Santa), Leslie Bellair (Snowflake), Meak Moore (Zart), Кори Раус (Wordsworth), Matt Henson (Dad), Tatiana Guy (Mom), Эви Эйкхофф (Kendyl), Джулия Уолтерс (Caroline), Chadwick Halbritter (Logistics Elf), Michael Davidson (Mail Delivery Cart Elf), Эмма Грин (Various Elves in North Pole & ER), A Todd Sayer (Various Elves in North Pole & ER), Chanda A. Bell (Elf ER Nurse PA System), Tara Burtchaell (Shipping Yard Intercom)-Описание: Новогодние приключения маленького эльфа...
    Снято по бестселлеру The Elf on the Shelf
    -Премьера (мир): 26 ноября 2011
    ..
    За исходный BD 3D Remux спасибо S.V.O.!
    -Качество: BDRip (by Ash61)
    Контейнер: MKV
    Формат 3D: Half OverUnder / Вертикальная анаморфная стереопара
    Порядок ракурсов: левый ракурс первый
    Видео кодек: x264
    Аудио кодек: AC3-Видео: AVC / 23,976 fps / 1920х1080p / ~6.6 Mbps
    Аудио: Английский / AC3 / 48 KHz / 5.1 ch / 640 Kbps (Original - BD 3D)
    Субтитры: Отсутствуют

    MediaInfo

    General
    Unique ID : 199723295149932202499702186237576843752 (0x96414EB67DBE0F80A3BD8929871B91E8)
    Complete name : E:\AnElf'sStory.TheElfOnTheShelf(2011)3D-halfOU(Ash61)Eng.mkv
    Format : Matroska
    Format version : Version 2
    File size : 1.35 GiB
    Duration : 26mn 12s
    Overall bit rate : 7 358 Kbps
    Movie name : История эльфа: Эльф на полке / An Elf's Story: The Elf on the Shelf (2011) 3D
    Encoded date : UTC 2015-01-07 21:15:54
    Writing application : mkvmerge v5.8.0 ('No Sleep / Pillow') built on Sep 2 2012 15:37:04
    Writing library : libebml v1.2.3 + libmatroska v1.3.0
    Video
    ID : 1
    Format : AVC
    Format/Info : Advanced Video Codec
    Format profile : High@L4.1
    Format settings, CABAC : Yes
    Format settings, ReFrames : 4 frames
    Codec ID : V_MPEG4/ISO/AVC
    Duration : 26mn 12s
    Bit rate : 6 572 Kbps
    Width : 1 920 pixels
    Height : 1 080 pixels
    Display aspect ratio : 16:9
    Frame rate mode : Constant
    Frame rate : 23.976 fps
    Color space : YUV
    Chroma subsampling : 4:2:0
    Bit depth : 8 bits
    Scan type : Progressive
    Bits/(Pixel*Frame) : 0.132
    Stream size : 1.20 GiB (89%)
    Title : BDRip by Ash61
    Writing library : x264 core 138 r2358 9e941d1
    Encoding settings : cabac=1 / ref=4 / deblock=1:-3:-3 / analyse=0x3:0x113 / me=umh / subme=10 / psy=1 / psy_rd=1.00:0.00 / mixed_ref=1 / me_range=32 / chroma_me=1 / trellis=2 / 8x8dct=1 / cqm=0 / deadzone=21,11 / fast_pskip=1 / chroma_qp_offset=-2 / threads=12 / lookahead_threads=2 / sliced_threads=0 / nr=0 / decimate=1 / interlaced=0 / bluray_compat=0 / constrained_intra=0 / bframes=9 / b_pyramid=2 / b_adapt=2 / b_bias=0 / direct=3 / weightb=1 / open_gop=0 / weightp=2 / keyint=250 / keyint_min=23 / scenecut=40 / intra_refresh=0 / rc_lookahead=60 / rc=crf / mbtree=1 / crf=17.0 / qcomp=0.70 / qpmin=10 / qpmax=69 / qpstep=4 / vbv_maxrate=40000 / vbv_bufsize=30000 / crf_max=0.0 / nal_hrd=none / frame-packing=4 / ip_ratio=1.40 / aq=1:0.70
    Language : English
    Default : Yes
    Forced : No
    Audio
    ID : 2
    Format : AC-3
    Format/Info : Audio Coding 3
    Mode extension : CM (complete main)
    Format settings, Endianness : Big
    Codec ID : A_AC3
    Duration : 26mn 12s
    Bit rate mode : Constant
    Bit rate : 640 Kbps
    Channel(s) : 6 channels
    Channel positions : Front: L C R, Side: L R, LFE
    Sampling rate : 48.0 KHz
    Bit depth : 16 bits
    Compression mode : Lossy
    Stream size : 120 MiB (9%)
    Title : Original
    Language : English
    Default : Yes
    Forced : No
    Menu
    00:00:00.000 : :1
    00:01:34.676 : :2
    00:04:44.783 : :3
    00:06:20.670 : :4
    00:07:35.120 : :5
    00:10:46.562 : :6
    00:11:52.919 : :7
    00:13:07.452 : :8
    00:15:37.061 : :9
    00:17:03.563 : :10
    00:19:06.936 : :11
    00:20:24.556 : :12

    Скриншоты

    Для оценки 3Д - Анимированные скрины






    Скачать .torrent

    Скачать торрент-файл бесплатно и на максимальной скорости!

    Как скачивать? · Что такое торрент? · Рейтинг и ограничения

    !ВНИМАНИЕ!
    Сайт не распространяет и не хранит электронные версии произведений, а занимается лишь лишь предоставлением доступа к создаваемому пользователями каталогу ссылок на торрент-файлы, которые содержат только списки хеш-сумм, убедительная просьба с жалобами обращаться напрямую к пользователю. Файлы для обмена на трекере предоставлены пользователями сайта, и администрация не несёт ответственности за их содержание. Просьба не заливать файлы, защищенные авторскими правами, а также файлы нелегального содержания!


    _________________
    [Профиль] [ЛС]
    Показать сообщения:    
    Ответить на тему

    Текущее время: Сегодня, в 12:17

    Часовой пояс: GMT + 2



    Вы не можете начинать темы
    Вы не можете отвечать на сообщения
    Вы не можете редактировать свои сообщения
    Вы не можете удалять свои сообщения
    Вы не можете голосовать в опросах
    Вы не можете прикреплять файлы к сообщениям
    Вы не можете скачивать файлы