BitTorrentTracker PerecTracker.org
BitTorrentTracker PerecTracker.org
    
Регистрация  ·  Вход
 
 · 
Забыли пароль?

  • Марья-искусница (Александр Роу) [1959, Фильм-сказка, DVDRip-AVC]

    Ответить на тему
     
    Автор Сообщение

    -sasha2006

    Создавать темы 08-Мар-2013 20:05

           

    [Цитировать]

    Марья-искусница
    Жанр: Фильм-сказка
    Год выпуска: 1959
    Страна: СССР
    Продолжительность: 01:14:55
    Субтитры: русский, английский, немецкий, французский, испанский, итальянский
    Режиссёр: Александр Роу
    Сценарий: Евгений Шварц
    Оператор: Дмитрий Суренский, Леонид Акимов
    Композитор: Андрей Волконский
    Художник: Евгений Галей
    В ролях: Михаил Кузнецов, Виктор Перевалов, Анатолий Кубацкий, Георгий Милляр, Ольга Хачапуридзе, Нинель Мышкова, Вера Алтайская, Сергей Троицкий, Александр Хвыля, Н. Кондратьев.
    Описание: Закончилась у солдата служба, спешит солдат домой. Но по пути в родные места довелось ему сделать еще одно доброе дело: помочь мальчику Иванушке вызволить из плена матушку свою — Марью-Искусницу.
    Уж как ни старался могущественный и хитрый царь Водокрут со всей своей придворной нечистью, так и не смог побороть солдатскую смекалку и доброе сердце…

    Образец №1 (sample), 2 минуты, 29.8 МБ
    Образец №2 (sample), 2 минуты, 40.4 МБ
    Качество видео: DVDRip-AVC
    Формат видео: MKV (1,18Гб)
    Видео: X264, 684x568, анаморфное PAL 4:3, 25 кадр/с, 2130 кбит/с
    Аудио 1: русский, AC3, 48 кгц, 128 кбит/с, 1.0 (оригинал)
    Субтитры 1: Russian, SRT (Win1251)
    Субтитры 2: Francais, SRT (Win1252)
    Субтитры 3: English, SRT (Win1252)
    Субтитры 4: Deutsch, SRT (UTF-8)
    Субтитры 5: Espanol, SRT (Win1252)
    Субтитры 6: Italiano, SRT (UTF-8)
    Аудио 2 (отдельным файлом): русский, AC3, 48 кгц, 448 кбит/с, 5.1
    Аудио 3 (отдельным файлом): английский (закадровый), AC3, 48 кгц, 448 кбит/с, 5.1
    Аудио 4 (отдельным файлом): французский (закадровый), AC3, 48 кгц, 448 кбит/с, 5.1

    MediaInfo

    Format : Matroska
    File size : 1.18 GiB
    Duration : 1h 14mn
    Overall bit rate : 2 262 Kbps
    Movie name : Марья-искусница (1959)
    Encoded date : UTC 2011-01-09 22:47:31
    Writing application : mkvmerge v2.2.0 ('Turn It On Again') built on Mar 4 2008 12:58:26
    Writing library : libebml v0.7.7 + libmatroska v0.8.1
    Video
    ID : 1
    Format : AVC
    Format/Info : Advanced Video Codec
    Format profile : High@L3.1
    Format settings, CABAC : Yes
    Format settings, ReFrames : 8 frames
    Muxing mode : Container profile=Unknown@3.1
    Codec ID : V_MPEG4/ISO/AVC
    Duration : 1h 14mn
    Bit rate : 2 089 Kbps
    Width : 684 pixels
    Height : 568 pixels
    Display aspect ratio : 4:3
    Original display aspect ratio : 1.204
    Frame rate : 25.000 fps
    Resolution : 24 bits
    Colorimetry : 4:2:0
    Scan type : Progressive
    Bits/(Pixel*Frame) : 0.215
    Stream size : 1.09 GiB (92%)
    Writing library : x264 core 68 r1181M 49bf767
    Encoding settings : cabac=1 / ref=8 / deblock=1:-2:-1 / analyse=0x3:0x133 / me=umh / subme=9 / psy_rd=1.0:0.0 / mixed_ref=1 / me_range=32 / chroma_me=0 / trellis=2 / 8x8dct=1 / cqm=0 / deadzone=21,11 / chroma_qp_offset=-2 / threads=6 / nr=0 / decimate=1 / mbaff=0 / bframes=5 / b_pyramid=1 / b_adapt=2 / b_bias=0 / direct=1 / wpredb=1 / keyint=250 / keyint_min=25 / scenecut=40 / rc=crf / crf=20.5 / qcomp=0.60 / qpmin=10 / qpmax=51 / qpstep=4 / ip_ratio=1.40 / pb_ratio=1.30 / aq=1:1.05
    Language : Russian
    Audio
    ID : 2
    Format : AC-3
    Format/Info : Audio Coding 3
    Codec ID : A_AC3
    Duration : 1h 14mn
    Bit rate mode : Constant
    Bit rate : 128 Kbps
    Channel(s) : 1 channel
    Channel positions : C
    Sampling rate : 48.0 KHz
    Stream size : 68.6 MiB (6%)
    Title : 1.0 Original
    Language : Russian
    Text #1
    ID : 3
    Format : UTF-8
    Codec ID : S_TEXT/UTF8
    Codec ID/Info : UTF-8 Plain Text
    Title : Russian
    Language : Russian
    Text #2
    ID : 4
    Format : UTF-8
    Codec ID : S_TEXT/UTF8
    Codec ID/Info : UTF-8 Plain Text
    Title : English
    Language : English
    Text #3
    ID : 5
    Format : UTF-8
    Codec ID : S_TEXT/UTF8
    Codec ID/Info : UTF-8 Plain Text
    Title : Deutsch
    Language : German
    Text #4
    ID : 6
    Format : UTF-8
    Codec ID : S_TEXT/UTF8
    Codec ID/Info : UTF-8 Plain Text
    Title : Francais
    Language : French
    Text #5
    ID : 7
    Format : UTF-8
    Codec ID : S_TEXT/UTF8
    Codec ID/Info : UTF-8 Plain Text
    Title : Espanol
    Language : Spanish
    Text #6
    ID : 8
    Format : UTF-8
    Codec ID : S_TEXT/UTF8
    Codec ID/Info : UTF-8 Plain Text
    Title : Italiano
    Language : Italian

    Скриншоты AVC

    Внимание, на большинстве бытовых DVD-проигрывателей отсутствует поддержка MKV/X264 из этой раздачи.
    Как добавить дополнительные файлы к основному?

    Читать здесь ->

    Для монтажа доп. файлов достаточно программы mkvToolNix (ссылка на дистрибутив для Windows):
    Добавляем файлы при помощи кнопки "add" (или перетаскиваем в окно программы), оставляем галочки там где нужно, кнопками "Up / Down" выстраиваем потоки в нужном порядке. На вкладке "Format specific options" в поле "Delay (in ms)" смещение звука автоматически установится при добавлении файла с именем "...DELAY ***ms..." (если не указано, оставить 0).

    иллюстрация

    На закладке "General track option" можно выставить следующие параметры:
    • "Default track flag" - если выставить в значение "yes", то поток будет проигрываться по-умолчанию.
    • "Track name" - наименование потока, например, "Комментарии режиссера", "Дубляж", "Закадровый"...
    • "Language" - язык потока.

    иллюстрация


    FAQ по просмотру MKV/h.264 / AAC
    Скачать .torrent

    Скачать торрент-файл бесплатно и на максимальной скорости!

    Как скачивать? · Что такое торрент? · Рейтинг и ограничения

    !ВНИМАНИЕ!
    Сайт не распространяет и не хранит электронные версии произведений, а занимается лишь лишь предоставлением доступа к создаваемому пользователями каталогу ссылок на торрент-файлы, которые содержат только списки хеш-сумм, убедительная просьба с жалобами обращаться напрямую к пользователю. Файлы для обмена на трекере предоставлены пользователями сайта, и администрация не несёт ответственности за их содержание. Просьба не заливать файлы, защищенные авторскими правами, а также файлы нелегального содержания!


    _________________

    ░▒▓█▀▄▀▄▀▄█▓▒░
    [Профиль] [ЛС]
    Показать сообщения:    
    Ответить на тему

    Текущее время: Сегодня, в 20:25

    Часовой пояс: GMT + 2



    Вы не можете начинать темы
    Вы не можете отвечать на сообщения
    Вы не можете редактировать свои сообщения
    Вы не можете удалять свои сообщения
    Вы не можете голосовать в опросах
    Вы не можете прикреплять файлы к сообщениям
    Вы не можете скачивать файлы