BitTorrentTracker PerecTracker.org
BitTorrentTracker PerecTracker.org
    
Регистрация  ·  Вход
 
 · 
Забыли пароль?

  • Огонь, вода и медные трубы (Александр Роу) [1967, Фильм-сказка, DVDRip-AVC]

    Ответить на тему
     
    Автор Сообщение

    -sasha2006

    Создавать темы 08-Мар-2013 19:55

           

    [Цитировать]

    Огонь, вода и медные трубыЖанр: Фильм-сказка
    Год выпуска: 1967
    Продолжительность: 01:20:58
    Режиссёр: Александр Роу
    Субтитры: русский, английский, французский, испанский, португальский, германский, нидерландский, итальянский, японский (растровые DVD), иврит (растровые DVD)
    В ролях: Наталья Седых, Алексей Катышев, Георгий Милляр, Вера Алтайская, Лев Потемкин, Александр Хвыля, Анатолий Кубацкий, Леонид Харитонов, Муза Крепкогорская, Алексей Смирнов, Павел Павленко, Аркадий Цинман, Зоя Василькова, Михаил Пуговкин, Лидия Королева, Инга Будкевич, Татьяна Барышева, Тамара Носова, Андрей Файт, Анастасия Зуева, Валентин Брылеев, Петр Галаджев, Георгий Георгиу, Эдуард Изотов, Маргарита Корабельникова, Ирина Мурзаева, Николай Романов, Зинаида Воркуль, Зоя Толбузина, Ксения Козьмина, Е. Браверман, Вера Петрова.
    Сценарий: Николай Эрдман, Михаил Вольпин
    Оператор: Дмитрий Суренский
    Композитор: Николай Будашкин
    Художник: Арсений Клопотовский
    Описание: Герой фильма как-то отправляется в лес, чтобы жечь уголь. И там, на полянке, ему повстречалась Аленушка, которая пасла своего козленка. Но слуги Кащея Бессмертного похитили девушку прямо на глазах у Васи. В поисках возлюбленной Вася в буквальном смысле проходит сквозь огонь и воду. Но труднее всего устоять перед медными трубами, перед сверкающим сиянием славы…

    Внимание, на большинстве бытовых DVD-проигрывателей отсутствует поддержка MKV/X264 из этой раздачи.
    Образец №1 (sample), 2 минуты, 40.7 Мб
    Образец №2 (sample), 2 минуты, 32.7 Мб
    Качество видео: DVDRip-AVC
    Формат видео: MKV (1,49 Гб)
    Видео: x264, 692x388, 2.35 (анаморфное), 25 кадр/с, 2188 кбит/с
    Аудио: русский, AC3, 48 кгц, 448 кбит/с, 5.1
    Субтитры 1: Russian, SRT
    Субтитры 2: English, SRT
    Субтитры 3: Francais, SRT
    Субтитры 4: Espanol, SRT
    Субтитры 5: Portugues, SRT
    Субтитры 6: Deutsch, SRT
    Субтитры 7: Nederlands, SRT
    Субтитры 8: Italiano, SRT
    Субтитры 9: Japanese, VobSub
    Субтитры 10: Hebrew, VobSub
    Аудио 2 (отдельным файлом): английский (дубляж), AC3, 48 кгц, 448 кбит/с, 5.1
    Аудио 3 (отдельным файлом): французский (дубляж), AC3, 48 кгц, 448 кбит/с, 5.1

    MediaInfo

    Format : Matroska
    File size : 1.50 GiB
    Duration : 1h 20mn
    Overall bit rate : 2 644 Kbps
    Movie name : Огонь, вода и медные трубы (1967)
    Encoded date : UTC 2011-05-06 21:38:56
    Writing application : mkvmerge v2.2.0 ('Turn It On Again') built on Mar 4 2008 12:58:26
    Writing library : libebml v0.7.7 + libmatroska v0.8.1
    Video
    ID : 1
    Format : AVC
    Format/Info : Advanced Video Codec
    Format profile : High@L3.1
    Format settings, CABAC : Yes
    Format settings, ReFrames : 16 frames
    Muxing mode : Container profile=Unknown@3.1
    Codec ID : V_MPEG4/ISO/AVC
    Duration : 1h 20mn
    Bit rate : 2 143 Kbps
    Width : 692 pixels
    Height : 388 pixels
    Display aspect ratio : 2.35:1
    Original display aspect ratio : 16:9
    Frame rate : 25.000 fps
    Resolution : 24 bits
    Colorimetry : 4:2:0
    Scan type : Progressive
    Bits/(Pixel*Frame) : 0.319
    Stream size : 1.21 GiB (81%)
    Title : ~2188 kbit/s
    Writing library : x264 core 68 r1181M 49bf767
    Encoding settings : cabac=1 / ref=16 / deblock=1:0:0 / analyse=0x3:0x133 / me=umh / subme=9 / psy_rd=1.0:0.0 / mixed_ref=1 / me_range=48 / chroma_me=0 / trellis=2 / 8x8dct=1 / cqm=0 / deadzone=21,11 / chroma_qp_offset=-2 / threads=6 / nr=0 / decimate=1 / mbaff=0 / bframes=5 / b_pyramid=1 / b_adapt=2 / b_bias=0 / direct=1 / wpredb=1 / keyint=250 / keyint_min=25 / scenecut=40 / rc=crf / crf=18.6 / qcomp=0.60 / qpmin=10 / qpmax=51 / qpstep=4 / ip_ratio=1.30 / pb_ratio=1.20 / aq=1:1.00
    Language : Russian
    Audio
    ID : 2
    Format : AC-3
    Format/Info : Audio Coding 3
    Codec ID : A_AC3
    Duration : 1h 20mn
    Bit rate mode : Constant
    Bit rate : 448 Kbps
    Channel(s) : 6 channels
    Channel positions : Front: L C R, Surround: L R, LFE
    Sampling rate : 48.0 KHz
    Stream size : 259 MiB (17%)
    Title : 5.1 RUS
    Language : Russian
    Text #1
    ID : 3
    Format : UTF-8
    Codec ID : S_TEXT/UTF8
    Codec ID/Info : UTF-8 Plain Text
    Title : Russian
    Language : Russian
    Text #2
    ID : 4
    Format : UTF-8
    Codec ID : S_TEXT/UTF8
    Codec ID/Info : UTF-8 Plain Text
    Title : English
    Language : English
    Text #3
    ID : 5
    Format : UTF-8
    Codec ID : S_TEXT/UTF8
    Codec ID/Info : UTF-8 Plain Text
    Title : Francais
    Language : French
    Text #4
    ID : 6
    Format : UTF-8
    Codec ID : S_TEXT/UTF8
    Codec ID/Info : UTF-8 Plain Text
    Title : Espanol
    Language : Spanish
    Text #5
    ID : 7
    Format : UTF-8
    Codec ID : S_TEXT/UTF8
    Codec ID/Info : UTF-8 Plain Text
    Title : Portugues
    Language : Portuguese
    Text #6
    ID : 8
    Format : UTF-8
    Codec ID : S_TEXT/UTF8
    Codec ID/Info : UTF-8 Plain Text
    Title : Deutsch
    Language : German
    Text #7
    ID : 9
    Format : UTF-8
    Codec ID : S_TEXT/UTF8
    Codec ID/Info : UTF-8 Plain Text
    Title : Nederlands
    Language : Dutch
    Text #8
    ID : 10
    Format : UTF-8
    Codec ID : S_TEXT/UTF8
    Codec ID/Info : UTF-8 Plain Text
    Title : Italiano
    Language : Italian
    Text #9
    ID : 11
    Format : VobSub
    Codec ID : S_VOBSUB
    Codec ID/Info : The same subtitle format used on DVDs
    Title : Japanese
    Language : Japanese
    Text #10
    ID : 12
    Format : VobSub
    Codec ID : S_VOBSUB
    Codec ID/Info : The same subtitle format used on DVDs
    Title : Hebrew
    Language : Hebrew

    Скриншоты

    Скриншоты (анаморфное разрешение при воспроизведении)

    Как добавить дополнительные файлы к основному?

    Читать здесь ->

    Для монтажа доп. файлов достаточно программы mkvToolNix (ссылка на дистрибутив для Windows):
    Добавляем файлы при помощи кнопки "add" (или перетаскиваем в окно программы), оставляем галочки там где нужно, кнопками "Up / Down" выстраиваем потоки в нужном порядке. На вкладке "Format specific options" в поле "Delay (in ms)" смещение звука автоматически установится при добавлении файла с именем "...DELAY ***ms..." (если не указано, оставить 0).

    иллюстрация

    На закладке "General track option" можно выставить следующие параметры:
    • "Default track flag" - если выставить в значение "yes", то поток будет проигрываться по-умолчанию.
    • "Track name" - наименование потока, например, "Комментарии режиссера", "Дубляж", "Закадровый"...
    • "Language" - язык потока.

    иллюстрация


    FAQ по просмотру MKV/h.264 / AAC
    Скачать .torrent

    Скачать торрент-файл бесплатно и на максимальной скорости!

    Как скачивать? · Что такое торрент? · Рейтинг и ограничения

    !ВНИМАНИЕ!
    Сайт не распространяет и не хранит электронные версии произведений, а занимается лишь лишь предоставлением доступа к создаваемому пользователями каталогу ссылок на торрент-файлы, которые содержат только списки хеш-сумм, убедительная просьба с жалобами обращаться напрямую к пользователю. Файлы для обмена на трекере предоставлены пользователями сайта, и администрация не несёт ответственности за их содержание. Просьба не заливать файлы, защищенные авторскими правами, а также файлы нелегального содержания!


    _________________

    ░▒▓█▀▄▀▄▀▄█▓▒░
    [Профиль] [ЛС]
    Показать сообщения:    
    Ответить на тему

    Текущее время: Сегодня, в 17:29

    Часовой пояс: GMT + 2



    Вы не можете начинать темы
    Вы не можете отвечать на сообщения
    Вы не можете редактировать свои сообщения
    Вы не можете удалять свои сообщения
    Вы не можете голосовать в опросах
    Вы не можете прикреплять файлы к сообщениям
    Вы не можете скачивать файлы