BitTorrentTracker PerecTracker.org
BitTorrentTracker PerecTracker.org
    
Регистрация  ·  Вход
 
 · 
Забыли пароль?

  • Оставленные / Left Behind (Вик Армстронг / Vic Armstrong) [2014, США, фантастика, триллер, драма, BDRip-AVC] Dub + Original (Eng) + Subs (Rus, Eng)

    Ответить на тему
     
    Автор Сообщение

    rechyn

    Создавать темы 03-Мар-2015 23:09

           

    [Цитировать]

    Оставленные / Left Behind
    «Начало конца»
    -Страна: США
    Жанр: фантастика, триллер, драма
    Год выпуска: 2014
    Продолжительность: 01:50:05-Перевод: Профессиональный (дублированный)
    Оригинальная аудиодорожка: English
    Cубтитры: Русские (полные), English (full)
    Навигация по главам: присутствует - 12 глав-Режиссер: Вик Армстронг / Vic Armstrong
    В ролях: Николас Кейдж, Чад Майкл Мюррэй, Касси Томсон, Никки Уилан, Джордин Спаркс, Лиа Томпсон, Уильям Рэгсдэйл, Лора Кайюэтт, Куинтон Аарон, Мартин Клебба.-Описание: История летчика Рэйфорда Стила, столкнувшегося во время рейса с исчезновением нескольких пассажиров прямо из салона самолета. Вскоре становится известно о случаях бесследного исчезновения и в других местах. Людей охватывает паника.-
    Download sample-Качество видео: BDRip-AVC | исх. Blu-ray Disc (Custom) 1080p - thx:
    Формат: MKV-Видео: 1 124x470 (2.40:1), 23.976 fps, H.264 ~2 150 kbps avg, 0.164 bit/pixel
    Аудио №1: 48.0 kHz, AC3 Dolby Digital, 3/2 (L,C,R,l,r) + LFE ch, ~448 kbps | Профессиональный (дублированный)
    Аудио №2: 48.0 kHz, AC3 Dolby Digital, 3/2 (L,C,R,l,r) + LFE ch, ~448 kbps | English
    Субтитры №1: Русские (полные) | *.srt
    Субтитры №2: English (full) | *.srt-

    MediaInfo

    General
    Unique ID : 252686660734263855037982796382282948380 (0xBE19AE3EC9237620B6FD7F2695579F1C)
    Complete name : D:\Фильмы\Рипы\Left Behind.2014.BDRip-AVC.eFK tRuAVC.mkv
    Format : Matroska
    Format version : Version 4 / Version 2
    File size : 2.33 GiB
    Duration : 1h 50mn
    Overall bit rate : 3 034 Kbps
    Movie name : Оставленные / Left Behind (2014) - Release for rutracker
    Encoded date : UTC 2015-02-26 07:50:57
    Writing application : mkvmerge v7.6.0 ('Garden of Dreams') 64bit built on Feb 8 2015 13:04:34
    Writing library : libebml v1.3.1 + libmatroska v1.4.2
    Attachements : cover.png
    DURATION : 01:44:28.810000000
    NUMBER_OF_FRAMES : 1149
    NUMBER_OF_BYTES : 58718
    _STATISTICS_WRITING_APP : mkvmerge v7.6.0 ('Garden of Dreams') 64bit built on Feb 8 2015 13:04:34
    _STATISTICS_WRITING_DATE_UT : 2015-02-26 07:50:57
    _STATISTICS_TAGS : BPS DURATION NUMBER_OF_FRAMES NUMBER_OF_BYTES
    Video
    ID : 1
    Format : AVC
    Format/Info : Advanced Video Codec
    Format profile : High@L4.1
    Format settings, CABAC : Yes
    Format settings, ReFrames : 15 frames
    Codec ID : V_MPEG4/ISO/AVC
    Duration : 1h 50mn
    Bit rate : 2 077 Kbps
    Width : 1 124 pixels
    Height : 470 pixels
    Display aspect ratio : 2.40:1
    Frame rate mode : Constant
    Frame rate : 23.976 fps
    Color space : YUV
    Chroma subsampling : 4:2:0
    Bit depth : 8 bits
    Scan type : Progressive
    Bits/(Pixel*Frame) : 0.164
    Stream size : 1.60 GiB (68%)
    Title : eFK tRuAVC
    Writing library : x264 core 144 r2525kMod 40bb568
    Encoding settings : cabac=1 / ref=15 / deblock=1:-2:-1 / analyse=0x3:0x133 / me=umh / subme=11 / psy=1 / fade_compensate=0.00 / psy_rd=0.95:0.00 / mixed_ref=1 / me_range=32 / chroma_me=1 / trellis=2 / 8x8dct=1 / cqm=0 / deadzone=21,11 / fast_pskip=0 / chroma_qp_offset=-2 / threads=12 / lookahead_threads=3 / sliced_threads=0 / nr=0 / decimate=1 / interlaced=0 / bluray_compat=0 / constrained_intra=0 / fgo=0 / bframes=16 / b_pyramid=2 / b_adapt=2 / b_bias=0 / direct=3 / weightb=1 / open_gop=0 / weightp=2 / keyint=250 / keyint_min=23 / scenecut=40 / intra_refresh=0 / rc_lookahead=60 / rc=crf / mbtree=0 / crf=18.8000 / qcomp=0.60 / qpmin=0 / qpmax=69 / qpstep=4 / vbv_maxrate=50000 / vbv_bufsize=62500 / crf_max=0.0 / nal_hrd=none / filler=0 / ip_ratio=1.40 / pb_ratio=1.30 / aq=3:1.00
    Language : English
    Default : Yes
    Forced : No
    Color primaries : BT.709
    Transfer characteristics : BT.709
    Matrix coefficients : BT.709
    Color range : Limited
    DURATION : 01:50:05.599000000
    NUMBER_OF_FRAMES : 158376
    NUMBER_OF_BYTES : 1763043340
    _STATISTICS_WRITING_APP : mkvmerge v7.6.0 ('Garden of Dreams') 64bit built on Feb 8 2015 13:04:34
    _STATISTICS_WRITING_DATE_UT : 2015-02-26 07:50:57
    _STATISTICS_TAGS : BPS DURATION NUMBER_OF_FRAMES NUMBER_OF_BYTES
    Audio #1
    ID : 2
    Format : AC-3
    Format/Info : Audio Coding 3
    Mode extension : CM (complete main)
    Format settings, Endianness : Big
    Codec ID : A_AC3
    Duration : 1h 50mn
    Bit rate mode : Constant
    Bit rate : 448 Kbps
    Channel(s) : 6 channels
    Channel positions : Front: L C R, Side: L R, LFE
    Sampling rate : 48.0 KHz
    Bit depth : 16 bits
    Compression mode : Lossy
    Stream size : 353 MiB (15%)
    Title : Dub
    Language : Russian
    Default : Yes
    Forced : No
    Audio #2
    ID : 3
    Format : AC-3
    Format/Info : Audio Coding 3
    Mode extension : CM (complete main)
    Format settings, Endianness : Big
    Codec ID : A_AC3
    Duration : 1h 50mn
    Bit rate mode : Constant
    Bit rate : 448 Kbps
    Channel(s) : 6 channels
    Channel positions : Front: L C R, Side: L R, LFE
    Sampling rate : 48.0 KHz
    Bit depth : 16 bits
    Compression mode : Lossy
    Stream size : 353 MiB (15%)
    Language : English
    Default : No
    Forced : No
    Text #1
    ID : 4
    Format : UTF-8
    Codec ID : S_TEXT/UTF8
    Codec ID/Info : UTF-8 Plain Text
    Title : полные
    Language : Russian
    Default : No
    Forced : No
    Text #2
    ID : 5
    Format : UTF-8
    Codec ID : S_TEXT/UTF8
    Codec ID/Info : UTF-8 Plain Text
    Title : full
    Language : English
    Default : No
    Forced : No
    Menu
    00:00:00.000 : :Chapter 01
    00:10:27.585 : :Chapter 02
    00:17:48.776 : :Chapter 03
    00:27:25.769 : :Chapter 04
    00:35:13.277 : :Chapter 05
    00:44:36.840 : :Chapter 06
    00:52:53.587 : :Chapter 07
    01:01:39.696 : :Chapter 08
    01:09:14.150 : :Chapter 09
    01:21:01.231 : :Chapter 10
    01:30:04.607 : :Chapter 11
    01:38:15.973 : :Chapter 12

    x264 log

    x264 [info]: frame I:1455 Avg QP:15.63 size: 58276
    x264 [info]: frame P:32633 Avg QP:17.43 size: 23247
    x264 [info]: frame B:124288 Avg QP:19.16 size: 7399
    x264 [info]: consecutive B-frames: 2.1% 2.1% 8.6% 14.8% 16.1% 40.6% 6.7% 1.4% 2.2% 1.1% 0.9% 0.3% 0.8% 0.7% 0.4% 0.3% 1.0%
    x264 [info]: mb I I16..4: 7.4% 73.8% 18.9%
    x264 [info]: mb P I16..4: 1.0% 10.2% 2.1% P16..4: 30.8% 35.2% 12.7% 1.6% 0.1% skip: 6.3%
    x264 [info]: mb B I16..4: 0.2% 0.8% 0.2% B16..8: 37.2% 21.4% 3.4% direct: 3.6% skip:33.2% L0:45.2% L1:46.3% BI: 8.5%
    x264 [info]: 8x8 transform intra:75.1% inter:62.0%
    x264 [info]: direct mvs spatial:100.0% temporal:0.0%
    x264 [info]: coded y,uvDC,uvAC intra: 82.3% 83.5% 65.0% inter: 19.2% 20.0% 5.9%
    x264 [info]: i16 v,h,dc,p: 33% 21% 6% 40%
    x264 [info]: i8 v,h,dc,ddl,ddr,vr,hd,vl,hu: 10% 8% 8% 10% 13% 13% 13% 12% 13%
    x264 [info]: i4 v,h,dc,ddl,ddr,vr,hd,vl,hu: 16% 16% 8% 7% 12% 11% 11% 9% 10%
    x264 [info]: i8c dc,h,v,p: 40% 25% 18% 17%
    x264 [info]: Weighted P-Frames: Y:3.3% UV:2.1%
    x264 [info]: ref P L0: 45.6% 8.9% 17.2% 6.5% 5.4% 3.7% 3.4% 1.8% 1.6% 1.3% 1.2% 0.9% 0.9% 0.7% 0.8% 0.1%
    x264 [info]: ref B L0: 68.6% 12.6% 6.2% 3.3% 2.3% 1.8% 1.4% 0.9% 0.7% 0.7% 0.6% 0.5% 0.3% 0.1%
    x264 [info]: ref B L1: 91.8% 8.2%
    x264 [info]: kb/s:2135.21
    x264 [total]: encoded 158376 frames, 8.74 fps, 2135.21 kb/s, duration 5:02:08.00

    Screenshots

    Скачать .torrent

    Скачать торрент-файл бесплатно и на максимальной скорости!

    Как скачивать? · Что такое торрент? · Рейтинг и ограничения

    !ВНИМАНИЕ!
    Сайт не распространяет и не хранит электронные версии произведений, а занимается лишь лишь предоставлением доступа к создаваемому пользователями каталогу ссылок на торрент-файлы, которые содержат только списки хеш-сумм, убедительная просьба с жалобами обращаться напрямую к пользователю. Файлы для обмена на трекере предоставлены пользователями сайта, и администрация не несёт ответственности за их содержание. Просьба не заливать файлы, защищенные авторскими правами, а также файлы нелегального содержания!


    _________________
    [Профиль] [ЛС]
    Показать сообщения:    
    Ответить на тему

    Текущее время: Сегодня, в 08:12

    Часовой пояс: GMT + 2



    Вы не можете начинать темы
    Вы не можете отвечать на сообщения
    Вы не можете редактировать свои сообщения
    Вы не можете удалять свои сообщения
    Вы не можете голосовать в опросах
    Вы не можете прикреплять файлы к сообщениям
    Вы не можете скачивать файлы