BitTorrentTracker PerecTracker.org
BitTorrentTracker PerecTracker.org
    
Регистрация  ·  Вход
 
 · 
Забыли пароль?

  • Батарейка / The Battery (Джереми Гарднер / Jeremy Gardner) [2012, США, Драма, триллер, BDRip-AVC] DVO (den904 & DeadSno) + Sub Rus + Original Eng

    Ответить на тему
     
    Автор Сообщение

    rechyn

    Создавать темы 03-Мар-2015 23:01

           

    [Цитировать]

    Батарейка / The Battery
    Страна: США
    Жанр: Драма, триллер
    Год выпуска: 2012
    Продолжительность: 01:40:23
    Перевод: Любительский (двухголосый закадровый) den904 & DeadSno
    Внимание! Присутствует ненормативная лексика.
    Cубтитры: русские- Dezz,английские
    Оригинальная аудиодорожка: английский
    Режиссер: Джереми Гарднер / Jeremy Gardner
    В ролях: Джереми Гарднер, Адам Кронхейм, Нильс Болл, Алана О’Брайэн, Джэми Пантанелла, Ларри Фесенден, Келли МакКвейд, Эрик Саймон, Бен Призби, Сара Аллен
    Описание: В фильме рассказывается история двух бейсболистов, Бена и Микки, которые путешествуют по всей Новой Англии, куда глаза глядят. Единственная проблема в том, что человечество практически вымерло, и зомби можно встретить на каждом шагу. Герои фильма скитаются по лесам, избегая городов, лишь изредка заходя в дома. Во время путешествия по пустынным окрестностям, Микки находит пару раций, из которых доносится разговор группы выживших…


    Сэмпл: http://multi-up.com/1023128
    Качество видео: BDRip-AVC
    Исходник:The.Battery.2012.Blu-Ray.1080p.AVC.ReMuX.DTS-HDMA.5.1-PriMeHD/Blu-bits
    Формат видео: MKV
    Видео: h264;1040x442;Aspect Ratio: 47:20(2.35:1);2667kbps;23.976fps
    Аудио: AC3;Sample Rate:48000Hz;Channel:2(stereo);192kbps
    Аудио 2: AC3;Sample Rate:48000Hz;Channel:2(stereo);192kbps
    Формат субтитров: softsub (SRT)
    MediaInfo
    eneral
    Unique ID : 238111959539448851968366843360118174141 (0xB322B1FF23CB0AF8AE4704FDA00DF1BD)
    Complete name : I:\Рипы\The.Battery.2012\Dropbox\The.Battery.2012.mkv
    Format : Matroska
    Format version : Version 4 / Version 2
    File size : 2.18 GiB
    Duration : 1h 40mn
    Overall bit rate : 3 113 Kbps
    Encoded date : UTC 2014-12-27 13:59:17
    Writing application : mkvmerge v6.1.0 ('Old Devil') built on Mar 4 2013 09:10:42
    Writing library : libebml v1.3.0 + libmatroska v1.4.0
    Video
    ID : 1
    Format : AVC
    Format/Info : Advanced Video Codec
    Format profile : High@L4.1
    Format settings, CABAC : Yes
    Format settings, ReFrames : 8 frames
    Codec ID : V_MPEG4/ISO/AVC
    Duration : 1h 40mn
    Bit rate : 2 667 Kbps
    Width : 1 040 pixels
    Height : 442 pixels
    Display aspect ratio : 2.35:1
    Frame rate mode : Constant
    Frame rate : 23.976 fps
    Color space : YUV
    Chroma subsampling : 4:2:0
    Bit depth : 8 bits
    Scan type : Progressive
    Bits/(Pixel*Frame) : 0.242
    Stream size : 1.87 GiB (86%)
    Writing library : x264 core 142 Рип от KinoCollection
    Encoding settings : cabac=1 / ref=8 / deblock=1:-3:-3 / analyse=0x3:0x113 / me=umh / subme=11 / psy=1 / fade_compensate=0.00 / psy_rd=1.00:0.10 / mixed_ref=1 / me_range=32 / chroma_me=1 / trellis=2 / 8x8dct=1 / cqm=0 / deadzone=21,11 / fast_pskip=0 / chroma_qp_offset=-3 / threads=6 / lookahead_threads=1 / sliced_threads=0 / nr=0 / decimate=1 / interlaced=0 / bluray_compat=0 / constrained_intra=0 / fgo=0 / bframes=16 / b_pyramid=2 / b_adapt=2 / b_bias=0 / direct=1 / weightb=1 / open_gop=1 / weightp=2 / keyint=240 / keyint_min=23 / scenecut=40 / intra_refresh=0 / rc_lookahead=50 / rc=crf / mbtree=1 / crf=17.2868 / qcomp=0.60 / qpmin=0 / qpmax=69 / qpstep=4 / ip_ratio=1.40 / aq=1:1.00
    Language : English
    Default : Yes
    Forced : No
    Audio #1
    ID : 2
    Format : AC-3
    Format/Info : Audio Coding 3
    Mode extension : CM (complete main)
    Format settings, Endianness : Big
    Codec ID : A_AC3
    Duration : 1h 40mn
    Bit rate mode : Constant
    Bit rate : 192 Kbps
    Channel(s) : 2 channels
    Channel positions : Front: L R
    Sampling rate : 48.0 KHz
    Bit depth : 16 bits
    Compression mode : Lossy
    Stream size : 138 MiB (6%)
    Language : Russian
    Default : Yes
    Forced : No
    Audio #2
    ID : 3
    Format : AC-3
    Format/Info : Audio Coding 3
    Mode extension : CM (complete main)
    Format settings, Endianness : Big
    Codec ID : A_AC3
    Duration : 1h 40mn
    Bit rate mode : Constant
    Bit rate : 192 Kbps
    Channel(s) : 2 channels
    Channel positions : Front: L R
    Sampling rate : 48.0 KHz
    Bit depth : 16 bits
    Compression mode : Lossy
    Stream size : 138 MiB (6%)
    Language : English
    Default : No
    Forced : No
    Text #1
    ID : 4
    Format : UTF-8
    Codec ID : S_TEXT/UTF8
    Codec ID/Info : UTF-8 Plain Text
    Language : Russian
    Default : No
    Forced : No
    Text #2
    ID : 5
    Format : UTF-8
    Codec ID : S_TEXT/UTF8
    Codec ID/Info : UTF-8 Plain Text
    Language : English
    Default : No
    Forced : No
    Menu
    00:00:00.000 : Chapter 01
    00:07:33.995 : Chapter 02
    00:18:44.790 : Chapter 03
    00:30:46.344 : Chapter 04
    00:37:56.691 : Chapter 05
    00:46:46.637 : Chapter 06
    00:53:08.185 : Chapter 07
    01:00:57.445 : Chapter 08
    01:06:39.495 : Chapter 09
    01:14:17.828 : Chapter 10
    01:21:11.533 : Chapter 11
    01:31:19.682 : Chapter 12
    Скриншот c названием фильма
    Скриншоты
    Скачать .torrent

    Скачать торрент-файл бесплатно и на максимальной скорости!

    Как скачивать? · Что такое торрент? · Рейтинг и ограничения

    !ВНИМАНИЕ!
    Сайт не распространяет и не хранит электронные версии произведений, а занимается лишь лишь предоставлением доступа к создаваемому пользователями каталогу ссылок на торрент-файлы, которые содержат только списки хеш-сумм, убедительная просьба с жалобами обращаться напрямую к пользователю. Файлы для обмена на трекере предоставлены пользователями сайта, и администрация не несёт ответственности за их содержание. Просьба не заливать файлы, защищенные авторскими правами, а также файлы нелегального содержания!


    _________________
    [Профиль] [ЛС]
    Показать сообщения:    
    Ответить на тему

    Текущее время: Сегодня, в 20:02

    Часовой пояс: GMT + 2



    Вы не можете начинать темы
    Вы не можете отвечать на сообщения
    Вы не можете редактировать свои сообщения
    Вы не можете удалять свои сообщения
    Вы не можете голосовать в опросах
    Вы не можете прикреплять файлы к сообщениям
    Вы не можете скачивать файлы