Register  ·  Log in
Forgot password?

  • Невероятное путешествие мистера Спивета / The Young and Prodigious T.S. Spivet (Жан-Пьер Жёне / Jean-Pierre Jeunet) [2013, Франция, Австралия, Канада, приключения, семейный, драма, DVB] Dub (Мосфильм-мастер)

    Reply to topic
    Author Message


    Post 04-Mar-2015 00:01



    Невероятное путешествие мистера Спивета / The Young and Prodigious T.S. Spivet-Страна: Франция, Австралия, Канада
    Жанр: приключения, семейный, драма
    Год выпуска: 2013
    Продолжительность: 01:40:42
    Перевод: Профессиональный (дублированный) Мосфильм-мастер
    Cубтитры: нет
    Оригинальная аудиодорожка: нет-Режиссер: Жан-Пьер Жёне / Jean-Pierre Jeunet
    В ролях: Кайл Кэтлетт, Хелена Бонем Картер, Джуди Дэвис, Каллум Кит Ренни, Нив Уилсон, Джейкоб Дейвис, Рик Мерсер, Доминик Пинон, Джулиан Ричингс, Ричард Жютра...-Описание: История о приключениях 10-летнего гения по имени Т. С. Спивет, избранные работы которого его приятель рискнул отправить в один известный вашингтонский институт. Неожиданно Спивету звонят из этого института с приглашением приехать забрать престижную награду и заодно выступить с докладом. Мальчик сбегает из дома, но ему нужно проехать через всю страну…-Доп. информация: Запись с канала НТВ+ "Кинорейс". На данный момент фильм не планируется к выпуску на DVD/Blu-ray с русской дорожкой, потому это наиболее качественная на сегодняшний день звуковая дорожка с дубляжом.-Релиз: | Семпл:Качество видео: DVB
    Формат видео: MPG
    Видео: 720x576 (16:9) @ 1024x576, 25.000 fps, MPEG-2 Video, ~2537 Kbps, 0.245 bits/pixel
    Аудио: Русский, 48.0 KHz, AC3, 6 ch, 448 Kbps | Дубляж
    Complete name : The Young and Prodigious T.S. Spivet 2013 NTV+ Kinoreys Dub.mpg
    Format : MPEG-PS
    File size : 2.14 GiB
    Duration : 1h 40mn
    Overall bit rate mode : Variable
    Overall bit rate : 3 046 Kbps
    ID : 224 (0xE0)
    Format : MPEG Video
    Format version : Version 2
    Format profile : Main@Main
    Format settings, BVOP : Yes
    Format settings, Matrix : Custom
    Format settings, GOP : Variable
    Format settings, picture structure : Frame
    Duration : 1h 40mn
    Bit rate mode : Variable
    Bit rate : 2 537 Kbps
    Maximum bit rate : 15.0 Mbps
    Width : 720 pixels
    Height : 576 pixels
    Display aspect ratio : 16:9
    Frame rate : 25.000 fps
    Standard : PAL
    Color space : YUV
    Chroma subsampling : 4:2:0
    Bit depth : 8 bits
    Scan type : Interlaced
    Scan order : Top Field First
    Compression mode : Lossy
    Bits/(Pixel*Frame) : 0.245
    Time code of first frame : 00:00:00:00
    Time code source : Group of pictures header
    Stream size : 1.78 GiB (83%)
    ID : 189 (0xBD)-128 (0x80)
    Format : AC-3
    Format/Info : Audio Coding 3
    Mode extension : CM (complete main)
    Format settings, Endianness : Big
    Muxing mode : DVD-Video
    Duration : 1h 40mn
    Bit rate mode : Constant
    Bit rate : 448 Kbps
    Channel(s) : 6 channels
    Channel positions : Front: L C R, Side: L R, LFE
    Sampling rate : 48.0 KHz
    Bit depth : 16 bits
    Compression mode : Lossy
    Stream size : 323 MiB (15%)
    Download .torrent

    Download free and at maximum speed!

    How to Download? · What is a torrent? · Ratings and Limitations

    The site does not extend and does not store electronic(digital) versions of products, and only gives access to a reference catalogue created by users on torrent-files which contain only lists of the hash-sums, the earnest entreaty, with complaints(abuse) to access directly to the user. Files for an exchange on tracker are given by users of a site, and the administration does not bear the responsibility for their maintenance. The request to not fill in the files protected by copyrights, and also files of the illegal maintenance!

    [Profile] [PM]
    Display posts from previous:    
    Reply to topic

    The time now is: Today 14:18

    All times are GMT + 3 Hours

    You cannot post new topics in this forum
    You cannot reply to topics in this forum
    You cannot edit your posts in this forum
    You cannot delete your posts in this forum
    You cannot vote in polls in this forum
    You cannot attach files in this forum
    You cannot download files in this forum