BitTorrentTracker PerecTracker.org
BitTorrentTracker PerecTracker.org
    
Регистрация  ·  Вход
 
 · 
Забыли пароль?

  • Невероятное путешествие мистера Спивета / The Young and Prodigious T.S. Spivet (Жан-Пьер Жёне / Jean-Pierre Jeunet) [2013, Франция, Австралия, Канада, приключения, семейный, драма, DVB] Dub (Мосфильм-мастер)

    Ответить на тему
     
    Автор Сообщение

    rechyn

    Создавать темы 03-Мар-2015 23:01

           

    [Цитировать]

    Невероятное путешествие мистера Спивета / The Young and Prodigious T.S. Spivet-Страна: Франция, Австралия, Канада
    Жанр: приключения, семейный, драма
    Год выпуска: 2013
    Продолжительность: 01:40:42
    Перевод: Профессиональный (дублированный) Мосфильм-мастер
    Cубтитры: нет
    Оригинальная аудиодорожка: нет-Режиссер: Жан-Пьер Жёне / Jean-Pierre Jeunet
    В ролях: Кайл Кэтлетт, Хелена Бонем Картер, Джуди Дэвис, Каллум Кит Ренни, Нив Уилсон, Джейкоб Дейвис, Рик Мерсер, Доминик Пинон, Джулиан Ричингс, Ричард Жютра...-Описание: История о приключениях 10-летнего гения по имени Т. С. Спивет, избранные работы которого его приятель рискнул отправить в один известный вашингтонский институт. Неожиданно Спивету звонят из этого института с приглашением приехать забрать престижную награду и заодно выступить с докладом. Мальчик сбегает из дома, но ему нужно проехать через всю страну…-Доп. информация: Запись с канала НТВ+ "Кинорейс". На данный момент фильм не планируется к выпуску на DVD/Blu-ray с русской дорожкой, потому это наиболее качественная на сегодняшний день звуковая дорожка с дубляжом.-Релиз: | Семпл: http://sendfile.su/1067272-Качество видео: DVB
    Формат видео: MPG
    Видео: 720x576 (16:9) @ 1024x576, 25.000 fps, MPEG-2 Video, ~2537 Kbps, 0.245 bits/pixel
    Аудио: Русский, 48.0 KHz, AC3, 6 ch, 448 Kbps | Дубляж
    MediaInfo
    General
    Complete name : The Young and Prodigious T.S. Spivet 2013 NTV+ Kinoreys Dub.mpg
    Format : MPEG-PS
    File size : 2.14 GiB
    Duration : 1h 40mn
    Overall bit rate mode : Variable
    Overall bit rate : 3 046 Kbps
    Video
    ID : 224 (0xE0)
    Format : MPEG Video
    Format version : Version 2
    Format profile : Main@Main
    Format settings, BVOP : Yes
    Format settings, Matrix : Custom
    Format settings, GOP : Variable
    Format settings, picture structure : Frame
    Duration : 1h 40mn
    Bit rate mode : Variable
    Bit rate : 2 537 Kbps
    Maximum bit rate : 15.0 Mbps
    Width : 720 pixels
    Height : 576 pixels
    Display aspect ratio : 16:9
    Frame rate : 25.000 fps
    Standard : PAL
    Color space : YUV
    Chroma subsampling : 4:2:0
    Bit depth : 8 bits
    Scan type : Interlaced
    Scan order : Top Field First
    Compression mode : Lossy
    Bits/(Pixel*Frame) : 0.245
    Time code of first frame : 00:00:00:00
    Time code source : Group of pictures header
    Stream size : 1.78 GiB (83%)
    Audio
    ID : 189 (0xBD)-128 (0x80)
    Format : AC-3
    Format/Info : Audio Coding 3
    Mode extension : CM (complete main)
    Format settings, Endianness : Big
    Muxing mode : DVD-Video
    Duration : 1h 40mn
    Bit rate mode : Constant
    Bit rate : 448 Kbps
    Channel(s) : 6 channels
    Channel positions : Front: L C R, Side: L R, LFE
    Sampling rate : 48.0 KHz
    Bit depth : 16 bits
    Compression mode : Lossy
    Stream size : 323 MiB (15%)
    Скриншоты
    Скачать .torrent

    Скачать торрент-файл бесплатно и на максимальной скорости!

    Как скачивать? · Что такое торрент? · Рейтинг и ограничения

    !ВНИМАНИЕ!
    Сайт не распространяет и не хранит электронные версии произведений, а занимается лишь лишь предоставлением доступа к создаваемому пользователями каталогу ссылок на торрент-файлы, которые содержат только списки хеш-сумм, убедительная просьба с жалобами обращаться напрямую к пользователю. Файлы для обмена на трекере предоставлены пользователями сайта, и администрация не несёт ответственности за их содержание. Просьба не заливать файлы, защищенные авторскими правами, а также файлы нелегального содержания!


    _________________
    [Профиль] [ЛС]
    Показать сообщения:    
    Ответить на тему

    Текущее время: Сегодня, в 22:13

    Часовой пояс: GMT + 2



    Вы не можете начинать темы
    Вы не можете отвечать на сообщения
    Вы не можете редактировать свои сообщения
    Вы не можете удалять свои сообщения
    Вы не можете голосовать в опросах
    Вы не можете прикреплять файлы к сообщениям
    Вы не можете скачивать файлы