BitTorrentTracker PerecTracker.org
BitTorrentTracker PerecTracker.org
    
Регистрация  ·  Вход
 
 · 
Забыли пароль?

  • Операция "Белвис" / Operation Belvis Bash / Zero Dark Dirty (Лекс Львовски / Lex Lvovsky, Джо Уолсер / Joe Walser) [2013, США, музыкальная романтическая комедия, HDRip] DVO (Кинолюкс) + Original Eng

    Ответить на тему
     
    Автор Сообщение

    rechyn

    Создавать темы 03-Мар-2015 23:01

           

    [Цитировать]

    Операция "Белвис" / Operation Belvis Bash / Zero Dark Dirty
    Страна: США
    Жанр: музыкальная романтическая комедия
    Год выпуска: 2013
    Продолжительность: 01:29:28
    Перевод: Профессиональный (двухголосый закадровый) Кинолюкс
    Cубтитры: нет
    Оригинальная аудиодорожка: английский
    Режиссер: Лекс Львовски / Lex Lvovsky, Джо Уолсер / Joe Walser
    В ролях: Лекс Львовски, Кори Фельдман, Марк Меткалф, Фрэнк Сталлоне, Дэниел Болдуин, Ноэль Бриттон, Валид Амини
    Описание: В эпоху политических и национальных конфликтов американский рок-музыкант Белвис Баш рекрутируется армией США и отправляется в Афганистан, чтобы завоевать сердца и умы его жителей, где присоединяется к странной труппе, состоящей из комика разговорного жанра Сэмюэля, афганца-барабанщика Самира и актрисы музыкального театра Мэй. В это время таинственная фигура плетет зловещий заговор против американского певца. И ни Белвис, ни остальные исполнители не догадываются, что они являются участниками далеко идущего секретного плана…
    Сэмпл: http://multi-up.com/1023212
    Качество видео: HDRip
    Формат видео: AVI
    Видео: MPEG4, XviD, 720x368 (1.957), 23.976 fps, 1 541 Kbps (0.243 bit/pixel)
    Аудио: AC-3, 48.0 KHz, 6 ch, 384 Kbps, CBR - русский
    Аудио 2: AC-3, 48.0 KHz, 6 ch, 384 Kbps, CBR - английский
    MediaInfo
    Общее
    Полное имя : K:\Операция «Белвис».avi
    Формат : AVI
    Формат/Информация : Audio Video Interleave
    Размер файла : 1,45 Гбайт
    Продолжительность : 1 ч. 29 м.
    Общий поток : 2323 Кбит/сек
    Название фильма : Операция "Белвис" / Operation Belvis Bash / Zero Dark Dirty (2013)
    Программа кодирования : VirtualDubMod 1.5.10.2 (build 2540/release)
    Библиотека кодирования : VirtualDubMod build 2540/release
    Правообладатель : miha2154
    Видео
    Идентификатор : 0
    Формат : MPEG-4 Visual
    Профиль формата : Advanced Simple@L5
    Параметр BVOP формата : 1
    Параметр QPel формата : Нет
    Параметр GMC формата : Без точки перехода
    Параметр матрицы формата : Выборочная
    Идентификатор кодека : XVID
    Идентификатор кодека/Подсказка : XviD
    Продолжительность : 1 ч. 29 м.
    Битрейт : 1541 Кбит/сек
    Ширина : 720 пикселей
    Высота : 368 пикселей
    Соотношение сторон : 1,957
    Частота кадров : 23,976 кадра/сек
    Цветовое пространство : YUV
    Субдискретизация насыщенности : 4:2:0
    Битовая глубина : 8 бит
    Тип развёртки : Прогрессивная
    Метод сжатия : С потерями
    Бит/(Пиксели*Кадры) : 0.243
    Размер потока : 986 Мбайт (66%)
    Библиотека кодирования : XviD 65
    Аудио #1
    Идентификатор : 1
    Формат : AC-3
    Формат/Информация : Audio Coding 3
    Расширение режима : CM (complete main)
    Параметр Endianness формата : Big
    Идентификатор кодека : 2000
    Продолжительность : 1 ч. 29 м.
    Вид битрейта : Постоянный
    Битрейт : 384 Кбит/сек
    Каналы : 6 каналов
    Расположение каналов : Front: L C R, Side: L R, LFE
    Частота : 48,0 КГц
    Битовая глубина : 16 бит
    Метод сжатия : С потерями
    Задержка видео : 322 мс.
    Размер потока : 246 Мбайт (17%)
    Выравнивание : Разделение по промежуткам
    Продолжительность промежутка : 42 мс. (1,00 видеокадр)
    Время предзагрузки промежутка : 500 мс.
    Заголовок : Профессиональный (двухголосый закадровый) Кинолюкс
    Аудио #2
    Идентификатор : 2
    Формат : AC-3
    Формат/Информация : Audio Coding 3
    Расширение режима : CM (complete main)
    Параметр Endianness формата : Big
    Идентификатор кодека : 2000
    Продолжительность : 1 ч. 29 м.
    Вид битрейта : Постоянный
    Битрейт : 384 Кбит/сек
    Каналы : 6 каналов
    Расположение каналов : Front: L C R, Side: L R, LFE
    Частота : 48,0 КГц
    Битовая глубина : 16 бит
    Метод сжатия : С потерями
    Размер потока : 246 Мбайт (17%)
    Выравнивание : Разделение по промежуткам
    Продолжительность промежутка : 42 мс. (1,00 видеокадр)
    Время предзагрузки промежутка : 500 мс.
    Заголовок : Английский
    Скриншот c названием фильма
    Скриншоты
    Скачать .torrent

    Скачать торрент-файл бесплатно и на максимальной скорости!

    Как скачивать? · Что такое торрент? · Рейтинг и ограничения

    !ВНИМАНИЕ!
    Сайт не распространяет и не хранит электронные версии произведений, а занимается лишь лишь предоставлением доступа к создаваемому пользователями каталогу ссылок на торрент-файлы, которые содержат только списки хеш-сумм, убедительная просьба с жалобами обращаться напрямую к пользователю. Файлы для обмена на трекере предоставлены пользователями сайта, и администрация не несёт ответственности за их содержание. Просьба не заливать файлы, защищенные авторскими правами, а также файлы нелегального содержания!


    _________________
    [Профиль] [ЛС]
    Показать сообщения:    
    Ответить на тему

    Текущее время: Сегодня, в 16:37

    Часовой пояс: GMT + 2



    Вы не можете начинать темы
    Вы не можете отвечать на сообщения
    Вы не можете редактировать свои сообщения
    Вы не можете удалять свои сообщения
    Вы не можете голосовать в опросах
    Вы не можете прикреплять файлы к сообщениям
    Вы не можете скачивать файлы