Register  ·  Log in
Forgot password?

  • Лёгкие деньги / Хорошие люди / Good People (Генрик Рубен Генц / Henrik Ruben Genz) [2014, США, боевик, триллер, криминал, BDRip] Dub

    Reply to topic
    Author Message


    Post 04-Mar-2015 00:01



    Лёгкие деньги / Хорошие люди / Good People«Бери и беги!»-Год выпуска: 2014
    Жанр: боевик, триллер, криминал
    Страна: США / Film 360, Film i Väst, Filmgate Films
    Продолжительность: 01:30:13
    Перевод: Профессиональный (полное дублирование) LINE
    Субтитры: нет-Режиссёр: Генрик Рубен Генц / Henrik Ruben Genz-В ролях: Джеймс Франко, Кейт Хадсон, Омар Си, Том Уилкинсон, Сэм Спруэлл, Анна Фрил, Дайармейд Мерта, Диана Хардкэсл, Ласко Аткинс, Оливер Димсдейл, Майкл Джибсон, Маартен Данненберг, Аник Вигет, Найджел Генис, Майкл Фокс, Вадж Али, Аманда Эдвардс, Джордж Кирби, Ник Тернер-Описание: Том и Анна обыкновенная семейная пара. Работа, дом, долги по кредитам. Но ситуация меняется. Владелец их квартиры, живший этажом ниже, внезапно умирает, и супруги находят у него сумку с деньгами. 370 000 долларов, о которых, похоже, никто не знает. Жизнь Том и Анны может измениться в одночасье, но есть одна проблема. Эти деньги принадлежат бандитам, которые хотят их найти.- -Сэмпл:Качество: BDRip [исх. BDRemux / 1080p / кинозал]
    Формат: AVI
    Видео: 704x400 (1.76:1), 23.976 fps, XviD build 73 ~1900 kbps avg, 0.28 bit/pixel
    Аудио: 48 kHz, AC3 Dolby Digital, 2/0 (L,R) ch, ~384.00 kbps avg
    -Media Info
    Format                      : AVI
    Format/Info                 : Audio Video Interleave
    File size                   : 1.45 GiB
    Duration                    : 1h 30mn
    Overall bit rate            : 2 294 Kbps
    Writing application         : VirtualDubMod | || (build 2550/release)
    Writing library             : VirtualDubMod build 2550/release
    ID                          : 0
    Format                      : MPEG-4 Visual
    Format profile              : Advanced Simple@L5
    Format settings, BVOP       : 1
    Format settings, QPel       : No
    Format settings, GMC        : No warppoints
    Format settings, Matrix     : Custom
    Codec ID                    : XVID
    Codec ID/Hint               : XviD
    Duration                    : 1h 30mn
    Bit rate                    : 1 900 Kbps
    Width                       : 704 pixels
    Height                      : 400 pixels
    Display aspect ratio        : 16:9
    Frame rate                  : 23.976 fps
    Color space                 : YUV
    Chroma subsampling          : 4:2:0
    Bit depth                   : 8 bits
    Scan type                   : Progressive
    Compression mode            : Lossy
    Bits/(Pixel*Frame)          : 0.281
    Stream size                 : 1.20 GiB (83%)
    Writing library             : XviD 73
    ID                          : 1
    Format                      : AC-3
    Format/Info                 : Audio Coding 3
    Mode extension              : CM (complete main)
    Format settings, Endianness : Big
    Codec ID                    : 2000
    Duration                    : 1h 30mn
    Bit rate mode               : Constant
    Bit rate                    : 384 Kbps
    Channel(s)                  : 2 channels
    Channel positions           : Front: L R
    Sampling rate               : 48.0 KHz
    Bit depth                   : 16 bits
    Compression mode            : Lossy
    Stream size                 : 248 MiB (17%)
    Alignment                   : Split accross interleaves
    Interleave, duration        : 42 ms (1.00 video frame)
    Interleave, preload duratio : 500 ms
    Download .torrent

    Download free and at maximum speed!

    How to Download? · What is a torrent? · Ratings and Limitations

    The site does not extend and does not store electronic(digital) versions of products, and only gives access to a reference catalogue created by users on torrent-files which contain only lists of the hash-sums, the earnest entreaty, with complaints(abuse) to access directly to the user. Files for an exchange on tracker are given by users of a site, and the administration does not bear the responsibility for their maintenance. The request to not fill in the files protected by copyrights, and also files of the illegal maintenance!

    [Profile] [PM]
    Display posts from previous:    
    Reply to topic

    The time now is: Today 14:34

    All times are GMT + 3 Hours

    You cannot post new topics in this forum
    You cannot reply to topics in this forum
    You cannot edit your posts in this forum
    You cannot delete your posts in this forum
    You cannot vote in polls in this forum
    You cannot attach files in this forum
    You cannot download files in this forum