BitTorrentTracker PerecTracker.org
BitTorrentTracker PerecTracker.org
    
Регистрация  ·  Вход
 
 · 
Забыли пароль?

  • Шальные деньги: Роскошная жизнь / Snabba cash - Livet deluxe (Дженс Йонсон / Jens Jonsson) [2013, Швеция, триллер, драма, криминал, BDRip] DVO (НТВ+) + Original (Swe)

    Ответить на тему
     
    Автор Сообщение

    rechyn

    Создавать темы 03-Мар-2015 23:01

           

    [Цитировать]

    Шальные деньги: Роскошная жизнь / Snabba cash - Livet deluxe
    Год выпуска: 2013
    Страна: Швеция
    Жанр: триллер, драма, криминал
    Продолжительность: 02:07:06
    Перевод: Профессиональный (двухголосый, закадровый) - НТВ+
    Субтитры: нет
    Оригинальная аудиодорожка: шведский
    Режиссер: Йенс Йонссон / Jens Jonsson
    В ролях: Матиас Варела (Jorge), Юэль Киннаман (JW), Мартин Волстром (Martin Hägerström), Малин Буска (Natalie Krajnic), Деян Чукич (Radovan), Madeleine Martin (Nadja), Седомир Джорджевич (Stefanovic), Александр Петрович (Dragan), Mats Andersson (Finnen), Пабло Леива Венгер (Pablo), Хьюго Руис (Sergio), Майя Кристенсон (Camilla Westlund)-Бюджет: $6 000 000
    Мировая премьера: 30 августа 2013-Описание: Джей Ви теперь живет в изгнании, и он, как никогда, полон решимости узнать, что же произошло с его пропавшей сестрой Камиллой. Все следы приводят его к миру организованной преступности в Стокгольме. Хорхе собирается сыграть свой последний аккорд - осуществить самый большой грабеж в шведской истории, но во время сложных подготовлений он встречает женщину от своего прошлого, Надю. Мартин Хэджерстрем идёт работать под прикрытием в сербскую мафию, чтобы достать пресловутого босса Радована Крайника за решеткой. После попытки покушения на убийство Радована, его дочь Натали втягивается в борьбу за раздел власти в сербской мафии.-Рейтинг
    kinopoisk.ru: 6.409 (336)
    imdb.com: 6.20 (2180)
    -Качество: BDRip
    Формат: AVI //SAMPLE//
    Видео: 720x304 (2.37:1), 24 fps, XviD MPEG-4 ~1619 kbps avg, 0.31 bit/pixel
    Аудио RUS: 48 kHz, AC3 Dolby Digital, 3/2 (L,C,R,l,r) + LFE ch, ~448 kbps - DVO
    Аудио Swe: 48 kHz, AC3 Dolby Digital, 3/2 (L,C,R,l,r) + LFE ch, ~384 kbps - Original

    MediaInfo
    Общее
    Полное имя : F:\Video\AVI\Films\Shal'nye.Den'gi.Roskoshnaja.Zhizn'.2013.DUAL.BDRip.PROPER.XviD.AC3.-AllFilms.avi
    Формат : AVI
    Формат/Информация : Audio Video Interleave
    Профиль формата : OpenDML
    Размер файла : 2,18 Гбайт
    Продолжительность : 2 ч. 7 м.
    Общий поток : 2458 Кбит/сек
    Название фильма : Шальные деньги: Роскошная жизнь / Snabba cash - Livet deluxe (2013)
    Режиссёр : Shevon (BDRemux)
    Программа кодирования : VirtualDubMod 1.5.10.3 | www.virtualdub-fr.org || (build 2550/release)
    Правообладатель : AllFilms (rutracker.org)
    Примечание : PROPER
    Видео
    Идентификатор : 0
    Формат : MPEG-4 Visual
    Профиль формата : Advanced Simple@L5
    Параметр BVOP формата : 1
    Параметр QPel формата : Нет
    Параметр GMC формата : Без точки перехода
    Параметр матрицы формата : Выборочная
    Идентификатор кодека : DIVX
    Идентификатор кодека/Информация : Project Mayo
    Идентификатор кодека/Подсказка : DivX 4
    Продолжительность : 2 ч. 7 м.
    Битрейт : 1609 Кбит/сек
    Ширина : 720 пикселей
    Высота : 304 пикселя
    Соотношение сторон : 2,35:1
    Частота кадров : 24,000 кадра/сек
    Цветовое пространство : YUV
    Субдискретизация насыщенности : 4:2:0
    Битовая глубина : 8 бит
    Тип развёртки : Прогрессивная
    Метод сжатия : С потерями
    Бит/(Пиксели*Кадры) : 0.306
    Размер потока : 1,43 Гбайт (65%)
    Библиотека кодирования : XviD 66
    Аудио #1
    Идентификатор : 1
    Формат : AC-3
    Формат/Информация : Audio Coding 3
    Расширение режима : CM (complete main)
    Параметр Endianness формата : Big
    Идентификатор кодека : 2000
    Продолжительность : 2 ч. 7 м.
    Вид битрейта : Постоянный
    Битрейт : 448 Кбит/сек
    Каналы : 6 каналов
    Расположение каналов : Front: L C R, Side: L R, LFE
    Частота : 48,0 КГц
    Битовая глубина : 16 бит
    Метод сжатия : С потерями
    Размер потока : 407 Мбайт (18%)
    Выравнивание : Разделение по промежуткам
    Продолжительность промежутка : 42 мс. (1,00 видеокадр)
    Время предзагрузки промежутка : 500 мс.
    Аудио #2
    Идентификатор : 2
    Формат : AC-3
    Формат/Информация : Audio Coding 3
    Расширение режима : CM (complete main)
    Параметр Endianness формата : Big
    Идентификатор кодека : 2000
    Продолжительность : 2 ч. 7 м.
    Вид битрейта : Постоянный
    Битрейт : 384 Кбит/сек
    Каналы : 6 каналов
    Расположение каналов : Front: L C R, Side: L R, LFE
    Частота : 48,0 КГц
    Битовая глубина : 16 бит
    Метод сжатия : С потерями
    Размер потока : 349 Мбайт (16%)
    Выравнивание : Разделение по промежуткам
    Продолжительность промежутка : 42 мс. (1,00 видеокадр)
    Время предзагрузки промежутка : 500 мс.
    Скриншоты
    -Торент-файл перезалит 28.12.2014. Перевод НТВ+ заменен с 2.0 на 5.1
    Скачать .torrent

    Скачать торрент-файл бесплатно и на максимальной скорости!

    Как скачивать? · Что такое торрент? · Рейтинг и ограничения

    !ВНИМАНИЕ!
    Сайт не распространяет и не хранит электронные версии произведений, а занимается лишь лишь предоставлением доступа к создаваемому пользователями каталогу ссылок на торрент-файлы, которые содержат только списки хеш-сумм, убедительная просьба с жалобами обращаться напрямую к пользователю. Файлы для обмена на трекере предоставлены пользователями сайта, и администрация не несёт ответственности за их содержание. Просьба не заливать файлы, защищенные авторскими правами, а также файлы нелегального содержания!


    _________________
    [Профиль] [ЛС]
    Показать сообщения:    
    Ответить на тему

    Текущее время: Сегодня, в 14:05

    Часовой пояс: GMT + 2



    Вы не можете начинать темы
    Вы не можете отвечать на сообщения
    Вы не можете редактировать свои сообщения
    Вы не можете удалять свои сообщения
    Вы не можете голосовать в опросах
    Вы не можете прикреплять файлы к сообщениям
    Вы не можете скачивать файлы