BitTorrentTracker PerecTracker.org
BitTorrentTracker PerecTracker.org
    
Регистрация  ·  Вход
 
 · 
Забыли пароль?

  • Бархатные волны / Nezne vlny (Иржи Вейделек / Jiri Vejdelek) [2013, Чехия, комедия, DVDRip] VO (Kass) + Original Cze

    Ответить на тему
     
    Автор Сообщение

    rechyn

    Создавать темы 03-Мар-2015 23:00

           

    [Цитировать]

    Бархатные волны / Nezne vlny
    Страна: Чехия
    Жанр: комедия
    Год выпуска: 2013
    Продолжительность: 1:33:40
    Перевод: Одноголосый закадровый (женский) Kass
    Cубтитры: нет
    Оригинальная аудиодорожка: чешский
    Режиссер: Иржи Вейделек / Jiri Vejdelek
    В ролях: Таня Паугофова / Tana Pauhofova, Гинек Чермак / Hynek Cermak, Роберт Цейнар / Robert Cejnar, Люция Штефлова / Lucie Steflova, Ян Маршал / Jan Marsal, Наталие Галузкова / Natalie Halouzkova, Gabriel Barreto de Carvalho, Ян Гартл / Jan Hartl, Войтех Дык / Vojtech Dyk, Ян Бударж / Jan Budar, Вацлав Копта / Vaclav Kopta, Татьяна Медвецка / Tatjana Medvecka, Мартин Ситта / Martin Sitta, Мартин Пехлат / Martin Pechlat, Станислав Зинндулка / Stanislav Zindulka, Петра Лустигова / Petra Lustigova, Михал Новотный / Michal Novotny, Люция Черна / Lucie Cerna, Даниель Новак / Daniel Novak, Барбора Черна / Barbora Cerna, Вацлав Матейовский / Vaclav Matejovsky
    Описание: История одной любви и одной революции, замечательно спараллеленные. Режиссер подал фильм немного как сказку, и он очень выигрывает на фоне исторически тяжелых версий.
    Судьба юного Войты была заранее предопределена родителями. Отец видел в нем будущего чемпиона по плаванию, мать – пианиста-виртуоза. Планы эти не осуществились во всем блеске, зато человек вырос хороший и, подрастая, пережил немало интересного - как, впрочем, и все окружающие. Только в жизни Войты основную роль сыграла Эля, его рыжеволосая колдунья, его наяда.
    Фильм по-настоящему чешский, приятный для просмотра, с некоторой долей полезной инфы, но больше просто веселый.
    Доп. информация: Исходник - http://rutracker.org/forum/viewtopic.php?t=4904012
    Сэмпл: http://sendfile.su/1068407
    Качество видео: DVDRip
    Формат видео: AVI
    Видео: 720x304 (2.37:1), 25 fps, XviD build 64 ~1634 kbps avg, 0.30 bit/pixel
    Аудио 1: Русский (Dolby AC3, 6 ch) 448 Кбит/сек, 48,0 КГц
    Аудио 2: Cesky (Dolby AC3, 6 ch) 448 Кбит/сек, 48,0 КГц - отдельным файлом
    MediaInfo
    General
    Complete name : Nezne_Vlny_2013_DVDrip_R2_RusVO.avi
    Format : AVI
    Format/Info : Audio Video Interleave
    File size : 1.37 GiB
    Duration : 1h 33mn
    Overall bit rate : 2 093 Kbps
    Writing library : VirtualDub build 32842/release
    Video
    ID : 0
    Format : MPEG-4 Visual
    Format profile : Advanced Simple@L5
    Format settings, BVOP : 1
    Format settings, QPel : No
    Format settings, GMC : No warppoints
    Format settings, Matrix : Default (H.263)
    Codec ID : XVID
    Codec ID/Hint : XviD
    Duration : 1h 33mn
    Bit rate : 1 635 Kbps
    Width : 720 pixels
    Height : 304 pixels
    Display aspect ratio : 2.35:1
    Frame rate : 25.000 fps
    Color space : YUV
    Chroma subsampling : 4:2:0
    Bit depth : 8 bits
    Scan type : Progressive
    Compression mode : Lossy
    Bits/(Pixel*Frame) : 0.299
    Stream size : 1.07 GiB (78%)
    Writing library : XviD 64
    Audio
    ID : 1
    Format : AC-3
    Format/Info : Audio Coding 3
    Mode extension : CM (complete main)
    Format settings, Endianness : Big
    Codec ID : 2000
    Duration : 1h 33mn
    Bit rate mode : Constant
    Bit rate : 448 Kbps
    Channel(s) : 6 channels
    Channel positions : Front: L C R, Side: L R, LFE
    Sampling rate : 48.0 KHz
    Bit depth : 16 bits
    Compression mode : Lossy
    Stream size : 300 MiB (21%)
    Alignment : Aligned on interleaves
    Interleave, duration : 40 ms (1.00 video frame)
    Interleave, preload duration : 512 ms
    Скриншот c названием фильма
    Скриншоты
    Скачать .torrent

    Скачать торрент-файл бесплатно и на максимальной скорости!

    Как скачивать? · Что такое торрент? · Рейтинг и ограничения

    !ВНИМАНИЕ!
    Сайт не распространяет и не хранит электронные версии произведений, а занимается лишь лишь предоставлением доступа к создаваемому пользователями каталогу ссылок на торрент-файлы, которые содержат только списки хеш-сумм, убедительная просьба с жалобами обращаться напрямую к пользователю. Файлы для обмена на трекере предоставлены пользователями сайта, и администрация не несёт ответственности за их содержание. Просьба не заливать файлы, защищенные авторскими правами, а также файлы нелегального содержания!


    _________________
    [Профиль] [ЛС]
    Показать сообщения:    
    Ответить на тему

    Текущее время: Сегодня, в 14:22

    Часовой пояс: GMT + 2



    Вы не можете начинать темы
    Вы не можете отвечать на сообщения
    Вы не можете редактировать свои сообщения
    Вы не можете удалять свои сообщения
    Вы не можете голосовать в опросах
    Вы не можете прикреплять файлы к сообщениям
    Вы не можете скачивать файлы