BitTorrentTracker PerecTracker.org
BitTorrentTracker PerecTracker.org
    
Регистрация  ·  Вход
 
 · 
Забыли пароль?

  • Курьер / Le colis (Гаэль Д\'Инглемар / Gael d\'Ynglemare) [2011, Канада, комедия, DVB] Original (Fre) + Sub (rus)

    Ответить на тему
     
    Автор Сообщение

    rechyn

    Создавать темы 03-Мар-2015 23:00

           

    [Цитировать]

    Курьер
    Le colis-Страна: Канада
    Жанр: комедия
    Год выпуска: 2011
    Продолжительность: 01:46:17
    Перевод: Субтитры (перевод И.Рыбкиной, Éclair Group)
    Cубтитры: русские
    Оригинальная аудиодорожка: французский
    Режиссер: Гаэль Д'Инглемар / Gaël d'YnglemareВ ролях: Эммануэль Билодо / Emmanuel Bilodeau (Michel Beaulieu), Гилдор Рой / Gildor Roy (Jacques St.Louis), Жан-Мари Корбель / Jean-Marie Corbeil (Shotgun), Эвелин де ла Шенельер / Evelyne de la Chenelière (Lucie), Алис Морель-Мишо / Alice Morel-Michaud (Jade), Франсуа Левейе / François Léveillé (Le policier), Кристин Харви / Christine Harvey (France), Поль Дусе / Paul Doucet (Eric St-Louis)
    Описание: Фильм исследует тему социального успеха и страха перед тем, что кто-то не оправдает ожиданий. Это история двух людей, один из которых задолжавший всем курьер Мишель, только что расставшийся с подругой и с большим трудом пытающийся доказать дочери, что жизнь хороша; а второй внешне успешный специалист по недвижимости Жак, одержимый просаживанием денег в игровых автоматах и решивший свести счеты с жизнью, когда его кредитные карты перестали принимать к оплате. Неожиданно судьба сводит этих людей вместе, будто с желанием выяснить: Что же такое успешная жизнь?..
    Доп. информация: TV5MONDE DVB-S

    Качество видео: DVB
    Формат видео: MKV
    Видео: MPEG Video 2, 704x576@1024x576 (16:9), 25 fps, ~2115 kbps avg, 0.209 bit/pixel
    Аудио: Французский (MPEG Audio 2, 2 ch, 48 kHz, ~192.00 kbps avg)
    Формат субтитров: hardsub (неотключаемые)
    MediaInfo
    ОбщееУникальный идентификатор : 207392224511111489556583055253880815048 (0x9C064A1F6B0C3E1082C531A3BFCDBDC8)Полное имя : E:\My Torrents 2\[apreder]Le_colis(2011)DVB.mkvФормат : MatroskaВерсия формата : Version 2Размер файла : 1,75 ГбайтПродолжительность : 1 ч. 46 м.Режим общего битрейта : ПеременныйОбщий поток : 2354 Кбит/секДата кодирования : UTC 2015-01-02 17:00:57Программа кодирования : mkvmerge v7.4.0 ('Circles') 64bit built on Dec 12 2014 12:19:56Библиотека кодирования : libebml v1.3.0 + libmatroska v1.4.1
    ВидеоИдентификатор : 1Формат : MPEG VideoВерсия формата : Version 2Профиль формата : Main@MainПараметр BVOP формата : ДаПараметр матрицы формата : ВыборочнаяПараметр GOP формата : M=3, N=15Format_Settings_PictureStructure : FrameИдентификатор кодека : V_MPEG2Идентификатор кодека/Информация : MPEG 1 or 2 VideoПродолжительность : 1 ч. 46 м.Вид битрейта : ПеременныйБитрейт : 2115 Кбит/секШирина : 704 пикселяВысота : 576 пикселейСоотношение сторон : 16:9Режим частоты кадров : ПостоянныйЧастота кадров : 25,000 кадров/секСтандарт вещания : PALЦветовое пространство : YUVСубдискретизация насыщенности : 4:2:0Битовая глубина : 8 битТип развёртки : ЧересстрочнаяПорядок развёртки : Верхнее поле первоеМетод сжатия : С потерямиБит/(Пиксели*Кадры) : 0.209Временной код первого кадра : 00:00:00:00Оригинал временного кода : Group of pictures headerРазмер потока : 1,57 Гбайт (90%)Default : ДаForced : НетGop_OpenClosed_FirstFrame : Closed
    АудиоИдентификатор : 2Формат : MPEG AudioВерсия формата : Version 1Профиль формата : Layer 2Идентификатор кодека : A_MPEG/L2Идентификатор кодека/Подсказка : MP2Продолжительность : 1 ч. 46 м.Вид битрейта : ПостоянныйБитрейт : 192 Кбит/секКаналы : 2 каналаЧастота : 48,0 КГцМетод сжатия : С потерямиРазмер потока : 146 Мбайт (8%)Язык : FrenchDefault : ДаForced : Нет
    Скриншот c названием фильма
    Скриншоты


    Резервные скриншоты

    -[2'022]
    Скачать .torrent

    Скачать торрент-файл бесплатно и на максимальной скорости!

    Как скачивать? · Что такое торрент? · Рейтинг и ограничения

    !ВНИМАНИЕ!
    Сайт не распространяет и не хранит электронные версии произведений, а занимается лишь лишь предоставлением доступа к создаваемому пользователями каталогу ссылок на торрент-файлы, которые содержат только списки хеш-сумм, убедительная просьба с жалобами обращаться напрямую к пользователю. Файлы для обмена на трекере предоставлены пользователями сайта, и администрация не несёт ответственности за их содержание. Просьба не заливать файлы, защищенные авторскими правами, а также файлы нелегального содержания!


    _________________
    [Профиль] [ЛС]
    Показать сообщения:    
    Ответить на тему

    Текущее время: Сегодня, в 11:50

    Часовой пояс: GMT + 2



    Вы не можете начинать темы
    Вы не можете отвечать на сообщения
    Вы не можете редактировать свои сообщения
    Вы не можете удалять свои сообщения
    Вы не можете голосовать в опросах
    Вы не можете прикреплять файлы к сообщениям
    Вы не можете скачивать файлы