BitTorrentTracker PerecTracker.org
BitTorrentTracker PerecTracker.org
    
Регистрация  ·  Вход
 
 · 
Забыли пароль?

  • Волки / Wolves (Дэвид Хэйтер / David Hayter) [2014, Канада, Франция, Фэнтези, Боевик, Ужасы, DVDRip] Dub (Лицензия)

    Ответить на тему
     
    Автор Сообщение

    rechyn

    Создавать темы 03-Мар-2015 23:00

           

    [Цитировать]

    Волки / Wolves
    «Дайте волю зверя»
    -Страна: Канада, Франция
    Студия: TF1 International, Copperheart Entertainment, Tulufilm Canada
    Жанр: Фэнтези, Боевик, Ужасы
    Год выпуска: 2014
    Продолжительность: 01:27:00
    Перевод: Профессиональный (полное дублирование) | Лицензия |
    Cубтитры: Нет
    Оригинальная аудиодорожка: Нет-Режиссер: Дэвид Хэйтер / David Hayter-В ролях: Джейсон Момоа, Лукас Тилл, Джон Пайпер-Фергюсон, Мерритт Паттерсон, Стивен МакХэтти, Дженнифер Хейл, Адам Батчер, Кейтлин Вонг, Мириам МакДональд, Ален Мусси-Описание: Кайдену Ричардсу 18 лет. Он — капитан студенческой футбольной команды, который встречается с самой завидной девушкой округа. Но однажды проснувшись ночью, он видит, что его родители зверски убиты. Кайден понимает, что это его рук дело — он превратился в дикого волка. В панике Кайден бежит из города и находит убежище в небольшом городке Волчий Хребет, который окутан еще более страшными тайнами.-| IMDB | КиноПоиск | Сэмпл |-Премьера (мир): 4 августа 2014,
    Премьера (РФ): 28 августа 2014, «Top Film Distribution»
    Релиз на DVD: 18 ноября 2014, «Lizard Cinema Trade»
    Бюджет: $18 000 000-Качество видео: DVDRip (исх.DVD5 от New-Team)
    Формат видео: AVI
    Видео: Xvid 720x384 (1.88:1), 25 fps, XviD build 73 ~1938 kbps avg, 0.28 bit/pixel
    Аудио: Dolby AC3 48000Hz L C R, Side: L R, LFE 6ch 448kbps | RUS |
    -MediaInfo
    General
    Complete name : D:\FILMS\Volki.2014.D.DVDRip.avi
    Format : AVI
    Format/Info : Audio Video Interleave
    File size : 1.46 GiB
    Duration : 1h 26mn
    Overall bit rate : 2 396 Kbps
    Movie name : v0!k!.2014.D.DVDRip.Deadmauvlad
    Director : Deadmauvlad
    Genre : ужасы,триллер
    Writing application : VirtualDubMod 1.5.10.3 | www.virtualdub-fr.org || (build 2550/release)
    Original source form/Name : Фильм
    Copyright : R.G Goldenshara
    Video
    ID : 0
    Format : MPEG-4 Visual
    Format profile : Advanced Simple@L5
    Format settings, BVOP : 1
    Format settings, QPel : No
    Format settings, GMC : No warppoints
    Format settings, Matrix : Custom
    Codec ID : XVID
    Codec ID/Hint : XviD
    Duration : 1h 26mn
    Bit rate : 1 939 Kbps
    Width : 720 pixels
    Height : 384 pixels
    Display aspect ratio : 1.85:1
    Frame rate : 25.000 fps
    Color space : YUV
    Chroma subsampling : 4:2:0
    Bit depth : 8 bits
    Scan type : Progressive
    Compression mode : Lossy
    Bits/(Pixel*Frame) : 0.280
    Stream size : 1.18 GiB (81%)
    Writing library : XviD 73
    Audio
    ID : 1
    Format : AC-3
    Format/Info : Audio Coding 3
    Mode extension : CM (complete main)
    Format settings, Endianness : Big
    Codec ID : 2000
    Duration : 1h 26mn
    Bit rate mode : Constant
    Bit rate : 448 Kbps
    Channel(s) : 6 channels
    Channel positions : Front: L C R, Side: L R, LFE
    Sampling rate : 48.0 KHz
    Bit depth : 16 bits
    Compression mode : Lossy
    Stream size : 279 MiB (19%)
    Alignment : Split accross interleaves
    Interleave, duration : 40 ms (1.00 video frame)
    Interleave, preload duratio : 500 ms
    Скриншот c названием фильма
    Скриншоты
    Скачать .torrent

    Скачать торрент-файл бесплатно и на максимальной скорости!

    Как скачивать? · Что такое торрент? · Рейтинг и ограничения

    !ВНИМАНИЕ!
    Сайт не распространяет и не хранит электронные версии произведений, а занимается лишь лишь предоставлением доступа к создаваемому пользователями каталогу ссылок на торрент-файлы, которые содержат только списки хеш-сумм, убедительная просьба с жалобами обращаться напрямую к пользователю. Файлы для обмена на трекере предоставлены пользователями сайта, и администрация не несёт ответственности за их содержание. Просьба не заливать файлы, защищенные авторскими правами, а также файлы нелегального содержания!


    _________________
    [Профиль] [ЛС]
    Показать сообщения:    
    Ответить на тему

    Текущее время: Сегодня, в 03:17

    Часовой пояс: GMT + 2



    Вы не можете начинать темы
    Вы не можете отвечать на сообщения
    Вы не можете редактировать свои сообщения
    Вы не можете удалять свои сообщения
    Вы не можете голосовать в опросах
    Вы не можете прикреплять файлы к сообщениям
    Вы не можете скачивать файлы