Register  ·  Log in
Forgot password?

  • Ночь покера / Poker Night (Грег Френсис / Greg Francis) [2014, Канада, США, боевик, триллер, криминал, WEB-DLRip] VO (PashaUp)

    Reply to topic
    Author Message


    Post 03-Mar-2015 23:58



    Ночь покера / Poker Night
    Страна: Канада, США
    Жанр: боевик, триллер, криминал
    Год выпуска: 2014
    Продолжительность: 01:45:03
    Перевод: Одноголосый закадровый PashaUp aka Павел Морозов
    Cубтитры: нет
    Оригинальная аудиодорожка: нет
    Режиссер: Грег Френсис / Greg Francis
    В ролях: Бо Мирчофф, Рон Перлман, Джанкарло Эспозито, Кори Лардж, Титус Уэлливер, Хелстон Сейдж, Рон Элдард, Майкл Эклунд, Киран Лардж, Локлин Манро
    Описание: В городке Уорсо, штат Индиана, по традиции опытные детективы устраивают игры в покер, за которыми хвастаются своими самыми поучительными делами перед молодыми коллегами. После одной такой игры главного героя — начинающего детектива Джетера — ждет опыт, которым он сам сможет похвастаться, если, конечно, высвободится из рук маньяка…
    Доп. информация:

    Качество видео: WEB-DLRip
    Формат видео: AVI
    Видео: 720x304 (2.37:1), 23.976 fps, XviD build 73 ~1589 kbps avg, 0.30 bit/pixel
    Аудио: 48 kHz, AC3 Dolby Digital, 3/2 (L,C,R,l,r) + LFE ch, ~384 kbps
    Complete name : C:\Users\Вика\Desktop\Рокеr.Night.2014.WЕB-DLRip.avi
    Format : AVI
    Format/Info : Audio Video Interleave
    File size : 1.46 GiB
    Duration : 1h 45mn
    Overall bit rate : 1 983 Kbps
    Writing application : VirtualDubMod | || (build 2550/release)
    Writing library : VirtualDubMod build 2550/release
    ID : 0
    Format : MPEG-4 Visual
    Format profile : Advanced Simple@L5
    Format settings, BVOP : 1
    Format settings, QPel : No
    Format settings, GMC : No warppoints
    Format settings, Matrix : Custom
    Codec ID : XVID
    Codec ID/Hint : XviD
    Duration : 1h 45mn
    Bit rate : 1 590 Kbps
    Width : 720 pixels
    Height : 304 pixels
    Display aspect ratio : 2.35:1
    Frame rate : 23.976 fps
    Color space : YUV
    Chroma subsampling : 4:2:0
    Bit depth : 8 bits
    Scan type : Progressive
    Compression mode : Lossy
    Bits/(Pixel*Frame) : 0.303
    Stream size : 1.17 GiB (80%)
    Writing library : XviD 73
    ID : 1
    Format : AC-3
    Format/Info : Audio Coding 3
    Mode extension : CM (complete main)
    Format settings, Endianness : Big
    Codec ID : 2000
    Duration : 1h 45mn
    Bit rate mode : Constant
    Bit rate : 384 Kbps
    Channel(s) : 6 channels
    Channel positions : Front: L C R, Side: L R, LFE
    Sampling rate : 48.0 KHz
    Bit depth : 16 bits
    Compression mode : Lossy
    Stream size : 289 MiB (19%)
    Alignment : Split accross interleaves
    Interleave, duration : 42 ms (1.00 video frame)
    Interleave, preload duration : 500 ms
    Скриншот c названием фильма
    Download .torrent

    Download free and at maximum speed!

    How to Download? · What is a torrent? · Ratings and Limitations

    The site does not extend and does not store electronic(digital) versions of products, and only gives access to a reference catalogue created by users on torrent-files which contain only lists of the hash-sums, the earnest entreaty, with complaints(abuse) to access directly to the user. Files for an exchange on tracker are given by users of a site, and the administration does not bear the responsibility for their maintenance. The request to not fill in the files protected by copyrights, and also files of the illegal maintenance!

    [Profile] [PM]
    Display posts from previous:    
    Reply to topic

    The time now is: Today 19:41

    All times are GMT + 3 Hours

    You cannot post new topics in this forum
    You cannot reply to topics in this forum
    You cannot edit your posts in this forum
    You cannot delete your posts in this forum
    You cannot vote in polls in this forum
    You cannot attach files in this forum
    You cannot download files in this forum