BitTorrentTracker PerecTracker.org
BitTorrentTracker PerecTracker.org
    
Регистрация  ·  Вход
 
 · 
Забыли пароль?

  • Все мертвы / Todos estan muertos / They Are All Dead (Беатрис Санчис / Beatriz Sanchis) [2014, Германия, Испания, Мексика, комедия, драма, HDRip] Sub Rus (Тарас Котов) + Original Spa

    Ответить на тему
     
    Автор Сообщение

    rechyn

    Создавать темы 03-Мар-2015 22:58

           

    [Цитировать]

    Все мертвы / Todos están muertos / They Are All Dead
    Страна: Германия, Испания, Мексика
    Жанр: комедия, драма
    Год выпуска: 2014
    Продолжительность: 01:29:31
    Перевод: Субтитры Тарас Котов
    Cубтитры: русские
    Оригинальная аудиодорожка: испанский
    Режиссер: Беатрис Санчис / Beatriz Sanchís
    В ролях: Елена Анайя, Науэль Перес Бискайярт, Анхелика Арагон, Кристиан Берналь, Патрик Криадо, Патрисиа Рейес Спиндола, Макарена Гарсия, Эдуардо Молина, Алехандро Родригес, Давид Сильвейра, Давид Морено Бенито, Мауро Бруссоло
    Описание: Мадрид, 1996 год. Лупе, бывшая рок-звезда, не общается с миром и не выходит из дому после того, как 15 лет назад в автокатастрофе погиб её брат Диего. Панчо, сын Лупе, любит свою бабушку, Пакиту, которая заботится о нём. Но дни Пакиты сочтены, и ей приходится принимать неожиданное решение, чтобы вернуть Лупе к нормальной жизни.
    P.S. Короче, зарисовки из жизни бывшей рок-звёзды. Не шедевр, но есть прикольные моменты. Думаю, молодёжь посмотрит.
    Сэмпл: http://multi-up.com/1027267
    Качество видео: HDRip
    Формат видео: AVI
    Видео: XviD; 720x384 (1.88:1); 23.976 fps; 1874 kbps; 0.28 bit/pixel
    Аудио: AC3 Dolby Digital; 44.1 kHz; 320 kbps; 2/0 (L,R) ch
    Формат субтитров: softsub (SRT)
    MediaInfo
    Формат : AVI
    Формат/Информация : Audio Video Interleave
    Профиль формата : OpenDML
    Размер файла : 1,38 Гбайт
    Продолжительность : 1 ч. 29 м.
    Общий поток : 2201 Кбит/сек
    Программа кодирования : Lavf54.29.104
    Видео
    Идентификатор : 0
    Формат : MPEG-4 Visual
    Профиль формата : Simple@L3
    Параметр BVOP формата : Нет
    Параметр QPel формата : Нет
    Параметр GMC формата : Без точки перехода
    Параметр матрицы формата : Default (H.263)
    Идентификатор кодека : XVID
    Идентификатор кодека/Подсказка : XviD
    Продолжительность : 1 ч. 29 м.
    Битрейт : 1869 Кбит/сек
    Ширина : 720 пикселей
    Высота : 384 пикселя
    Соотношение сторон : 1,85:1
    Частота кадров : 23,976 кадра/сек
    Цветовое пространство : YUV
    Субдискретизация насыщенности : 4:2:0
    Битовая глубина : 8 бит
    Тип развёртки : Прогрессивная
    Метод сжатия : С потерями
    Бит/(Пиксели*Кадры) : 0.282
    Размер потока : 1,17 Гбайт (85%)
    Библиотека кодирования : XviD 64
    Аудио
    Идентификатор : 1
    Формат : AC-3
    Формат/Информация : Audio Coding 3
    Расширение режима : CM (complete main)
    Параметр Endianness формата : Big
    Идентификатор кодека : 2000
    Продолжительность : 1 ч. 29 м.
    Вид битрейта : Постоянный
    Битрейт : 320 Кбит/сек
    Каналы : 2 канала
    Расположение каналов : Front: L R
    Частота : 44,1 КГц
    Битовая глубина : 16 бит
    Метод сжатия : С потерями
    Размер потока : 205 Мбайт (15%)
    Выравнивание : Соединение по промежуткам
    Продолжительность промежутка : 35 мс. (0,84 видеокадр)
    Пример субтитров
    327
    00:44:05,062 --> 00:44:07,430
    Но девчонки меня
    не интересуют.
    328
    00:44:07,490 --> 00:44:10,152
    Для меня главный
    интерес — это музыка.
    329
    00:44:11,350 --> 00:44:14,296
    И я очень рад,
    что встретил тебя.
    330
    00:44:15,450 --> 00:44:17,215
    Взаимно.
    331
    00:44:31,390 --> 00:44:32,712
    Лупе.
    332
    00:44:38,770 --> 00:44:40,317
    Прости меня.
    333
    00:44:42,570 --> 00:44:46,572
    Я вёл себя по-свински.
    334
    00:44:46,730 --> 00:44:50,573
    Я даже не представлял,
    335
    00:44:51,290 --> 00:44:54,600
    что тебе пришлось пережить.
    336
    00:44:55,130 --> 00:44:57,580
    То были адские муки.
    337
    00:44:58,810 --> 00:45:01,419
    И решил сказать, что я
    338
    00:45:02,690 --> 00:45:03,577
    тебе
    339
    00:45:04,250 --> 00:45:05,956
    прощаю
    340
    00:45:07,050 --> 00:45:09,261
    мою смерть.
    341
    00:45:12,530 --> 00:45:13,892
    Вот так.
    342
    00:45:15,170 --> 00:45:16,092
    Вот так?
    343
    00:45:16,690 --> 00:45:18,012
    Вот так.
    344
    00:45:20,490 --> 00:45:21,718
    Вот так.
    345
    00:45:22,330 --> 00:45:23,852
    Вот так.
    346
    00:45:27,110 --> 00:45:29,021
    Сукин ты сын!
    347
    00:47:24,490 --> 00:47:26,237
    Чёрт, Диего!
    348
    00:47:59,570 --> 00:48:01,834
    И какую песню выбрали
    для концерта?
    Скриншот c названием фильма
    Скриншоты
    Скачать .torrent

    Скачать торрент-файл бесплатно и на максимальной скорости!

    Как скачивать? · Что такое торрент? · Рейтинг и ограничения

    !ВНИМАНИЕ!
    Сайт не распространяет и не хранит электронные версии произведений, а занимается лишь лишь предоставлением доступа к создаваемому пользователями каталогу ссылок на торрент-файлы, которые содержат только списки хеш-сумм, убедительная просьба с жалобами обращаться напрямую к пользователю. Файлы для обмена на трекере предоставлены пользователями сайта, и администрация не несёт ответственности за их содержание. Просьба не заливать файлы, защищенные авторскими правами, а также файлы нелегального содержания!


    _________________
    [Профиль] [ЛС]
    Показать сообщения:    
    Ответить на тему

    Текущее время: Сегодня, в 07:53

    Часовой пояс: GMT + 2



    Вы не можете начинать темы
    Вы не можете отвечать на сообщения
    Вы не можете редактировать свои сообщения
    Вы не можете удалять свои сообщения
    Вы не можете голосовать в опросах
    Вы не можете прикреплять файлы к сообщениям
    Вы не можете скачивать файлы