BitTorrentTracker PerecTracker.org
BitTorrentTracker PerecTracker.org
    
Регистрация  ·  Вход
 
 · 
Забыли пароль?

  • Жёсткое диско / Хардкорное диско / Hardkor Disko (Кшиштоф Сконечный / Krzysztof Skonieczny) [2014, Польша, драма, криминал, эротика, DVDRip] VO (den904) + Sub Rus + Original Pol

    Ответить на тему
     
    Автор Сообщение

    rechyn

    Создавать темы 03-Мар-2015 22:57

           

    [Цитировать]

    Жёсткое диско / Хардкорное диско / Hardkor Disko
    Страна: Польша
    Жанр: драма, криминал, эротика
    Год выпуска: 2014
    Продолжительность: 01:23:15
    Перевод: Одноголосый закадровый den904
    Cубтитры: русские
    Оригинальная аудиодорожка: польский
    Режиссер: Кшиштоф Сконечный / Krzysztof Skonieczny
    В ролях: Марцин Ковальчик, Жасмин Полак, Януш Хабёр, Кшиштоф Сконечный, Шимон Новак, Лех Лотоцкий, Мацей Навроцкий
    Описание: Современный метрополис. Родители-нувориши и их гедонисты-дети живут в мире, где злоба и напряжение достигают взрывоопасного уровня. Мартин, недавно перебравшийся в столицу из провинции, знакомится с Олей. Девушка вводит своего нового знакомого в мир наркотиков, бесконечных богемных тусовок и нелегальных автогонок. Ни она, ни её родители не подозревают, что Мартин не так прост, как кажется на первый взгляд, и в его голове зреет хитрый план…

    Доп. информация:
    Перевод: Antonio
    Озвучка: den904
    Сэмпл: http://multi-up.com/1011162
    Качество видео: DVDRip
    Формат видео: AVI
    Видео: Xvid 720x304 25.00fps 1895Kbps
    Аудио 1: Dolby AC3 48000Hz stereo 224Kbps [русский]
    Аудио 2: Dolby AC3 48000Hz stereo 192Kbps [польский]
    Формат субтитров: softsub (SRT)
    Доп. информация о субтитрах: Antonio
    MediaInfo
    General
    Complete name : D:\TORRENTS\Hardkor Disko\Hardkor Disko.avi
    Format : AVI
    Format/Info : Audio Video Interleave
    File size : 1.35 GiB
    Duration : 1h 23mn
    Overall bit rate : 2 325 Kbps
    Writing application : VirtualDubMod 1.5.4.1 (build 2178/release)
    Writing library : VirtualDubMod build 2178/release
    Video
    ID : 0
    Format : MPEG-4 Visual
    Format profile : Advanced Simple@L5
    Format settings, BVOP : 2
    Format settings, QPel : No
    Format settings, GMC : No warppoints
    Format settings, Matrix : Default (H.263)
    Codec ID : XVID
    Codec ID/Hint : XviD
    Duration : 1h 23mn
    Bit rate : 1 896 Kbps
    Width : 720 pixels
    Height : 304 pixels
    Display aspect ratio : 2.35:1
    Frame rate : 25.000 fps
    Color space : YUV
    Chroma subsampling : 4:2:0
    Bit depth : 8 bits
    Scan type : Progressive
    Compression mode : Lossy
    Bits/(Pixel*Frame) : 0.346
    Stream size : 1.10 GiB (82%)
    Writing library : XviD 63
    Audio #1
    ID : 1
    Format : AC-3
    Format/Info : Audio Coding 3
    Mode extension : CM (complete main)
    Format settings, Endianness : Big
    Codec ID : 2000
    Duration : 1h 23mn
    Bit rate mode : Constant
    Bit rate : 224 Kbps
    Channel(s) : 2 channels
    Channel positions : Front: L R
    Sampling rate : 48.0 KHz
    Bit depth : 16 bits
    Compression mode : Lossy
    Stream size : 133 MiB (10%)
    Alignment : Split accross interleaves
    Interleave, duration : 40 ms (1.00 video frame)
    Interleave, preload duration : 500 ms
    Audio #2
    ID : 2
    Format : AC-3
    Format/Info : Audio Coding 3
    Mode extension : CM (complete main)
    Format settings, Endianness : Big
    Codec ID : 2000
    Duration : 1h 22mn
    Bit rate mode : Constant
    Bit rate : 192 Kbps
    Channel(s) : 2 channels
    Channel positions : Front: L R
    Sampling rate : 48.0 KHz
    Bit depth : 16 bits
    Compression mode : Lossy
    Stream size : 113 MiB (8%)
    Alignment : Split accross interleaves
    Interleave, duration : 40 ms (1.01 video frame)
    Interleave, preload duration : 500 ms
    Скриншот c названием фильма
    Скриншоты
    Скачать .torrent

    Скачать торрент-файл бесплатно и на максимальной скорости!

    Как скачивать? · Что такое торрент? · Рейтинг и ограничения

    !ВНИМАНИЕ!
    Сайт не распространяет и не хранит электронные версии произведений, а занимается лишь лишь предоставлением доступа к создаваемому пользователями каталогу ссылок на торрент-файлы, которые содержат только списки хеш-сумм, убедительная просьба с жалобами обращаться напрямую к пользователю. Файлы для обмена на трекере предоставлены пользователями сайта, и администрация не несёт ответственности за их содержание. Просьба не заливать файлы, защищенные авторскими правами, а также файлы нелегального содержания!


    _________________
    [Профиль] [ЛС]
    Показать сообщения:    
    Ответить на тему

    Текущее время: Сегодня, в 01:59

    Часовой пояс: GMT + 2



    Вы не можете начинать темы
    Вы не можете отвечать на сообщения
    Вы не можете редактировать свои сообщения
    Вы не можете удалять свои сообщения
    Вы не можете голосовать в опросах
    Вы не можете прикреплять файлы к сообщениям
    Вы не можете скачивать файлы