BitTorrentTracker PerecTracker.org
BitTorrentTracker PerecTracker.org
    
Регистрация  ·  Вход
 
 · 
Забыли пароль?

  • Близнецы / The Skeleton Twins (Крэйг Джонсон / Craig Johnson) [2014, США, Драма, HDRip] MVO (iTunes)

    Ответить на тему
     
    Автор Сообщение

    rechyn

    Создавать темы 03-Мар-2015 22:57

           

    [Цитировать]

    Близнецы / The Skeleton Twins
    Страна: США
    Жанр: Драма
    Год выпуска: 2014
    Продолжительность: 01:33:06
    Перевод: Многоголосый (профессиональный закадровый) [iTunes]
    Оригинальная аудиодорожка: нет
    Cубтитры: нет
    Режиссер: Крэйг Джонсон / Craig Johnson
    В ролях:Кристен Уиг, Билл Хейдер, Люк Уилсон, Тай Буррелл, Бойд Холбрук, Кэтлин Роуз Перкинс, Джоанна Глисон, Йен Хайланд, Дженнифер ЛаФлер, Женевьева Адамс
    Описание:Близнецы Мэгги и Майло не общались друг с другом сто лет, но, так уж случилось, что в один и тот же день и час они ухитрились чудом избежать смерти. Именно в минуту опасности оба пообещали изменить в жизни всё, что пошло не так, как им хотелось. Для Мэгги это пересмотр собственного брака с Лэнсом, а для гея Майло — попытка восстановить отношения со своим бывшим учителем Ричем, о чем они оба, в общем-то, стараются помалкивать. А потом брат и сестра осознают, что ключ к нормальной жизни для них — это еще и восстановление отношений друг с другом.


    Качество: HDRip
    Контейнер: AVI
    Видео: 720x304 (2.37:1), 23.976 fps, XviD build 50 ~1708 kbps avg, 0.33 bit/pixel
    Аудио: 48 kHz, AC3 Dolby Digital, 3/2 (L,C,R,l,r) + LFE ch, ~384 kbps

    MI
    Общее
    Полное имя : C:\Users\Пользователь\Downloads\Bliznecy.2014.P.HDRip.1400Mb.avi
    Формат : AVI
    Формат/Информация : Audio Video Interleave
    Размер файла : 1,37 Гбайт
    Продолжительность : 1 ч. 33 м.
    Общий поток : 2102 Кбит/сек
    Программа кодирования : VirtualDubMod 1.5.10.3 | www.virtualdub-fr.org || (build 2550/release)
    Библиотека кодирования : VirtualDubMod build 2550/release
    Видео
    Идентификатор : 0
    Формат : MPEG-4 Visual
    Профиль формата : Advanced Simple@L5
    Параметр BVOP формата : 2
    Параметр QPel формата : Нет
    Параметр GMC формата : Без точки перехода
    Параметр матрицы формата : Default (MPEG)
    Идентификатор кодека : XVID
    Идентификатор кодека/Подсказка : XviD
    Продолжительность : 1 ч. 33 м.
    Битрейт : 1709 Кбит/сек
    Ширина : 720 пикселей
    Высота : 304 пикселя
    Соотношение сторон : 2,35:1
    Частота кадров : 23,976 кадра/сек
    Цветовое пространство : YUV
    Субдискретизация насыщенности : 4:2:0
    Битовая глубина : 8 бит
    Тип развёртки : Прогрессивная
    Метод сжатия : С потерями
    Бит/(Пиксели*Кадры) : 0.326
    Размер потока : 1,11 Гбайт (81%)
    Библиотека кодирования : XviD 1.2.1 (UTC 2008-12-04)
    Аудио
    Идентификатор : 1
    Формат : AC-3
    Формат/Информация : Audio Coding 3
    Расширение режима : CM (complete main)
    Параметр Endianness формата : Big
    Идентификатор кодека : 2000
    Продолжительность : 1 ч. 33 м.
    Вид битрейта : Постоянный
    Битрейт : 384 Кбит/сек
    Каналы : 6 каналов
    Расположение каналов : Front: L C R, Side: L R, LFE
    Частота : 48,0 КГц
    Битовая глубина : 16 бит
    Метод сжатия : С потерями
    Размер потока : 256 Мбайт (18%)
    Выравнивание : Разделение по промежуткам
    Продолжительность промежутка : 42 мс. (1,00 видеокадр)
    Время предзагрузки промежутка : 500 мс.
    Скриншоты
    Скачать .torrent

    Скачать торрент-файл бесплатно и на максимальной скорости!

    Как скачивать? · Что такое торрент? · Рейтинг и ограничения

    !ВНИМАНИЕ!
    Сайт не распространяет и не хранит электронные версии произведений, а занимается лишь лишь предоставлением доступа к создаваемому пользователями каталогу ссылок на торрент-файлы, которые содержат только списки хеш-сумм, убедительная просьба с жалобами обращаться напрямую к пользователю. Файлы для обмена на трекере предоставлены пользователями сайта, и администрация не несёт ответственности за их содержание. Просьба не заливать файлы, защищенные авторскими правами, а также файлы нелегального содержания!


    _________________
    [Профиль] [ЛС]
    Показать сообщения:    
    Ответить на тему

    Текущее время: Сегодня, в 04:32

    Часовой пояс: GMT + 2



    Вы не можете начинать темы
    Вы не можете отвечать на сообщения
    Вы не можете редактировать свои сообщения
    Вы не можете удалять свои сообщения
    Вы не можете голосовать в опросах
    Вы не можете прикреплять файлы к сообщениям
    Вы не можете скачивать файлы