BitTorrentTracker PerecTracker.org
BitTorrentTracker PerecTracker.org
    
Регистрация  ·  Вход
 
 · 
Забыли пароль?

  • Привет, девушки / Давай знакомиться / Hello Ladies: The Movie (Стивен Мерчант / Stephen Merchant) [2014, США, комедия, HDTVRip] VO (Lord32)

    Ответить на тему
     
    Автор Сообщение

    rechyn

    Создавать темы 03-Мар-2015 22:56

           

    [Цитировать]

    Привет, девушки / Давай знакомиться / Hello Ladies: The Movie
    Страна: США
    Жанр: комедия
    Год выпуска: 2014
    Продолжительность: 01:20:23
    Перевод: Одноголосый закадровый (Lord32)
    Cубтитры: нет
    Режиссер: Стивен Мерчант / Stephen Merchant
    В ролях: Стивен Мерчант, Кристин Вудс, Нэйт Торренс, Адам Кэмпбелл, Кайл Муни, Генриетта Майер, Николь Кидман
    Описание: Стюарт - благополучный, но слегка закомплексованный мужчина в самом расцвете сил. Он недавно расстался со своей подругой и переехал в Лос-Анджелес. Когда его бывшая приезжает к нему в гости, он решает сделать все, чтобы произвести впечатление сверхуспешного человека: хвастается знакомствами со знаменитостями, нанимает безработную актрису, чтобы она изображала его подружку, достает приглашения на самые элитные вечеринки...
    Доп. информация:

    Полнометражный телевизионный фильм канала HBO.
    Красивое кино о красивой жизни
    Премьера: 22 ноября 2014
    Перевод: М. Васильев
    Озвучка: Lord32

    Сэмпл
    Качество видео: HDTVRip
    Формат видео: AVI
    Видео: 2211 Kbps, 720x400 (16:9), 23 976 fps, MPEG 4 XviD
    Аудио: 384 Kbps, 48.0 KHz, 16 bits, 6 ch, AC 3
    MediaInfo
    General
    Complete name : C:\Users\Владелец\Downloads\Hello.Ladies.The.Movie.2014
    Format : AVI
    Format/Info : Audio Video Interleave
    File size : 1.46 GiB
    Duration : 1h 20mn
    Overall bit rate : 2 605 Kbps
    Writing application : VirtualDubMod 1.5.10.3
    Writing library : VirtualDubMod build 2550/release
    Video
    ID : 0
    Format : MPEG-4 Visual
    Format profile : Advanced Simple@L5
    Format settings, BVOP : 1
    Format settings, QPel : No
    Format settings, GMC : No warppoints
    Format settings, Matrix : Default (H.263)
    Codec ID : XVID
    Codec ID/Hint : XviD
    Duration : 1h 20mn
    Bit rate : 2 211 Kbps
    Width : 720 pixels
    Height : 400 pixels
    Display aspect ratio : 16:9
    Frame rate : 23.976 fps
    Color space : YUV
    Chroma subsampling : 4:2:0
    Bit depth : 8 bits
    Scan type : Progressive
    Compression mode : Lossy
    Bits/(Pixel*Frame) : 0.320
    Stream size : 1.24 GiB (85%)
    Writing library : XviD 1.2.1 (UTC 2008-12-04)
    Audio
    ID : 1
    Format : AC-3
    Format/Info : Audio Coding 3
    Mode extension : CM (complete main)
    Format settings, Endianness : Big
    Codec ID : 2000
    Duration : 1h 20mn
    Bit rate mode : Constant
    Bit rate : 384 Kbps
    Channel(s) : 6 channels
    Channel positions : Front: L C R, Side: L R, LFE
    Sampling rate : 48.0 KHz
    Bit depth : 16 bits
    Compression mode : Lossy
    Stream size : 221 MiB (15%)
    Alignment : Split accross interleaves
    Interleave, duration : 42 ms (1.00 video frame)
    Interleave, preload duration : 500 ms
    Скриншот c названием фильма
    Скриншоты



    Скачать .torrent

    Скачать торрент-файл бесплатно и на максимальной скорости!

    Как скачивать? · Что такое торрент? · Рейтинг и ограничения

    !ВНИМАНИЕ!
    Сайт не распространяет и не хранит электронные версии произведений, а занимается лишь лишь предоставлением доступа к создаваемому пользователями каталогу ссылок на торрент-файлы, которые содержат только списки хеш-сумм, убедительная просьба с жалобами обращаться напрямую к пользователю. Файлы для обмена на трекере предоставлены пользователями сайта, и администрация не несёт ответственности за их содержание. Просьба не заливать файлы, защищенные авторскими правами, а также файлы нелегального содержания!


    _________________
    [Профиль] [ЛС]
    Показать сообщения:    
    Ответить на тему

    Текущее время: Сегодня, в 18:16

    Часовой пояс: GMT + 2



    Вы не можете начинать темы
    Вы не можете отвечать на сообщения
    Вы не можете редактировать свои сообщения
    Вы не можете удалять свои сообщения
    Вы не можете голосовать в опросах
    Вы не можете прикреплять файлы к сообщениям
    Вы не можете скачивать файлы