BitTorrentTracker PerecTracker.org
BitTorrentTracker PerecTracker.org
    
Регистрация  ·  Вход
 
 · 
Забыли пароль?

  • Белинда и я / Belinda et moi (Тьерри Бинисти / Thierry Binisti) [2013, Франция, комедия, драма, ЛГБТ-тема, DVB] Original (Fre) + Sub (rus)

    Ответить на тему
     
    Автор Сообщение

    rechyn

    Создавать темы 03-Мар-2015 22:57

           

    [Цитировать]

    Белинда и я
    Belinda et moi-Страна: Франция
    Жанр: комедия, драма, ЛГБТ-тема
    Год выпуска: 2013
    Продолжительность: 01:30:26
    Перевод: Субтитры (перевод М.Лабори, Éclair Group)
    Cубтитры: русские
    Оригинальная аудиодорожка: французский
    Режиссер: Тьерри Бинисти / Thierry BinistiВ ролях: Лин Рено / Line Renaud (Jacqueline), Александр Стикер / Alexandre Styker (Belinda), Валери Ансель / Valérie Ancel (Cécile), Роже Конбардо / Roger Contebardo (Xavier Croizet), Давид Мира-Жове / David Mira-Jover (Jérôme), Софи Васло / Sophie Vaslot (Liliane), Шанталь Равалек / Chantal Ravalec (Mme Croizet)
    Описание: Жаклин на протяжении многих лет привыкла к чайной церемонии, которую устраивала со своей подругой Мари-Луизой, но после ее внезапной кончины она соглашается принять у себя племянника подруги Жана, которого не видела с детства. Однако на вокзале к ней подошел не молодой человек, а очаровательная молодая женщина…
    Доп. информация: TV5MONDE DVB-S. На территории РФ возрастное ограничение 18+.
    Награда: приз Festival des créations télévisuelles de Luchon 2014 лучшему молодому актеру (Alexandre Styker).

    Качество видео: DVB
    Формат видео: MKV
    Видео: MPEG Video 2, 704x576@1024x576 (16:9), 25 fps, ~2523 kbps avg, 0.249 bit/pixel
    Аудио: Французский (MPEG Audio 2, 2 ch, 48 kHz, ~192.00 kbps avg)
    Формат субтитров: hardsub (неотключаемые)
    MediaInfo
    ОбщееУникальный идентификатор : 189089316691071138523187254506949605252 (0x8E4147188549AA1983EDED6B3BDE7784)Полное имя : E:\My Torrents 2\[apreder]Belinda_et_moi(2013)DVB.mkvФормат : MatroskaВерсия формата : Version 2Размер файла : 1,75 ГбайтПродолжительность : 1 ч. 30 м.Режим общего битрейта : ПеременныйОбщий поток : 2770 Кбит/секДата кодирования : UTC 2015-01-24 17:09:40Программа кодирования : mkvmerge v7.5.0 ('Glass Culture') 64bit built on Jan 4 2015 16:48:44Библиотека кодирования : libebml v1.3.1 + libmatroska v1.4.2
    ВидеоИдентификатор : 1Формат : MPEG VideoВерсия формата : Version 2Профиль формата : Main@MainПараметр BVOP формата : ДаПараметр матрицы формата : ВыборочнаяПараметр GOP формата : M=3, N=15Format_Settings_PictureStructure : FrameИдентификатор кодека : V_MPEG2Идентификатор кодека/Информация : MPEG 1 or 2 VideoПродолжительность : 1 ч. 30 м.Вид битрейта : ПеременныйБитрейт : 2523 Кбит/секШирина : 704 пикселяВысота : 576 пикселейСоотношение сторон : 16:9Режим частоты кадров : ПостоянныйЧастота кадров : 25,000 кадров/секСтандарт вещания : PALЦветовое пространство : YUVСубдискретизация насыщенности : 4:2:0Битовая глубина : 8 битТип развёртки : ЧересстрочнаяПорядок развёртки : Верхнее поле первоеМетод сжатия : С потерямиБит/(Пиксели*Кадры) : 0.249Временной код первого кадра : 00:00:00:00Оригинал временного кода : Group of pictures headerРазмер потока : 1,59 Гбайт (91%)Default : ДаForced : НетGop_OpenClosed_FirstFrame : Closed
    АудиоИдентификатор : 2Формат : MPEG AudioВерсия формата : Version 1Профиль формата : Layer 2Идентификатор кодека : A_MPEG/L2Идентификатор кодека/Подсказка : MP2Продолжительность : 1 ч. 30 м.Вид битрейта : ПостоянныйБитрейт : 192 Кбит/секКаналы : 2 каналаЧастота : 48,0 КГцМетод сжатия : С потерямиРазмер потока : 124 Мбайт (7%)Язык : FrenchDefault : ДаForced : Нет
    Скриншот c названием фильма
    Скриншоты


    Резервные скриншоты

    -[2'078]
    Скачать .torrent

    Скачать торрент-файл бесплатно и на максимальной скорости!

    Как скачивать? · Что такое торрент? · Рейтинг и ограничения

    !ВНИМАНИЕ!
    Сайт не распространяет и не хранит электронные версии произведений, а занимается лишь лишь предоставлением доступа к создаваемому пользователями каталогу ссылок на торрент-файлы, которые содержат только списки хеш-сумм, убедительная просьба с жалобами обращаться напрямую к пользователю. Файлы для обмена на трекере предоставлены пользователями сайта, и администрация не несёт ответственности за их содержание. Просьба не заливать файлы, защищенные авторскими правами, а также файлы нелегального содержания!


    _________________
    [Профиль] [ЛС]
    Показать сообщения:    
    Ответить на тему

    Текущее время: Сегодня, в 02:04

    Часовой пояс: GMT + 2



    Вы не можете начинать темы
    Вы не можете отвечать на сообщения
    Вы не можете редактировать свои сообщения
    Вы не можете удалять свои сообщения
    Вы не можете голосовать в опросах
    Вы не можете прикреплять файлы к сообщениям
    Вы не можете скачивать файлы