BitTorrentTracker PerecTracker.org
BitTorrentTracker PerecTracker.org
    
Регистрация  ·  Вход
 
 · 
Забыли пароль?

  • Клиника страха / Fear Clinic (Роберт Холл / Robert Hall) [2014, США, Ужасы, WEB-DLRip] DVO (DeadSno & den904) + Original Eng

    Ответить на тему
     
    Автор Сообщение

    rechyn

    Создавать темы 03-Мар-2015 22:55

           

    [Цитировать]

    Клиника страха / Fear Clinic
    Страна: США
    Жанр: Ужасы
    Год выпуска: 2014
    Продолжительность: 01:35:12
    Перевод: Любительский (двухголосый закадровый) DeadSno & den904 по субтитрам dsa69
    Cубтитры: нет
    Оригинальная аудиодорожка: английский
    Режиссер: Роберт Холл / Robert Hall
    В ролях: Роберт Инглунд, Томас Деккер, Фиона Дуриф, Кевин Гейдж, Фелиша Террелл, Брэндон Бимер, Бонни Морган, Анджелина Армани, Клеопатра Коулмэн, Кори Тейлор
    Описание: После нападения террориста на кафе, психика оставшихся в живых посетителей пострадала настолько, что у них начали появляться и обостряться самые различные фобии. Стремясь избавиться от постоянного страха, превратившего их жизнь в непрекращающийся кошмар, они обращаются к доктору Эндевору, главе клиники, исследующей страх и занимающейся излечением людей от фобий. Однако новаторская экспериментальная метода доктора впускает в наш мир нечто ужасное и непобедимое.
    Внимание! В фильме присутствует ненормативная лексика!
    Сэмпл: http://multi-up.com/1030782
    Качество видео: WEB-DLRip
    Формат видео: AVI
    Видео: Xvid 720x304 23.98fps 1 789 Kbps
    Аудио: Dolby AC3 48000Hz stereo 192kbps
    Аудио 2: Dolby AC3 48000Hz stereo 192kbps
    MediaInfo
    Format : AVI
    Format/Info : Audio Video Interleave
    File size : 1.46 GiB
    Duration : 1h 35mn
    Overall bit rate : 2 191 Kbps
    Writing application : VirtualDubModRus 1.5.10.2 (build 2542/release)
    Writing library : VirtualDubMod build 2542/release
    Video
    ID : 0
    Format : MPEG-4 Visual
    Format profile : Advanced Simple@L5
    Format settings, BVOP : Yes
    Format settings, QPel : No
    Format settings, GMC : No warppoints
    Format settings, Matrix : Custom
    Codec ID : XVID
    Codec ID/Hint : XviD
    Duration : 1h 35mn
    Bit rate : 1 792 Kbps
    Width : 720 pixels
    Height : 304 pixels
    Display aspect ratio : 2.35:1
    Frame rate : 23.976 fps
    Resolution : 8 bits
    Colorimetry : 4:2:0
    Scan type : Progressive
    Bits/(Pixel*Frame) : 0.342
    Stream size : 1.19 GiB (82%)
    Writing library : XviD 73
    Audio #1
    ID : 1
    Format : AC-3
    Format/Info : Audio Coding 3
    Codec ID : 2000
    Duration : 1h 35mn
    Bit rate mode : Constant
    Bit rate : 192 Kbps
    Channel(s) : 2 channels
    Channel positions : L R
    Sampling rate : 48.0 KHz
    Video delay : 5ms
    Stream size : 131 MiB (9%)
    Alignment : Split accross interleaves
    Interleave, duration : 42 ms (1.00 video frame)
    Interleave, preload duration : 500 ms
    Audio #2
    ID : 2
    Format : AC-3
    Format/Info : Audio Coding 3
    Codec ID : 2000
    Duration : 1h 35mn
    Bit rate mode : Constant
    Bit rate : 192 Kbps
    Channel(s) : 2 channels
    Channel positions : L R
    Sampling rate : 48.0 KHz
    Video delay : 5ms
    Stream size : 131 MiB (9%)
    Alignment : Split accross interleaves
    Interleave, duration : 42 ms (1.00 video frame)
    Interleave, preload duration : 500 ms
    Скриншот c названием фильма
    Скриншоты
    Скачать .torrent

    Скачать торрент-файл бесплатно и на максимальной скорости!

    Как скачивать? · Что такое торрент? · Рейтинг и ограничения

    !ВНИМАНИЕ!
    Сайт не распространяет и не хранит электронные версии произведений, а занимается лишь лишь предоставлением доступа к создаваемому пользователями каталогу ссылок на торрент-файлы, которые содержат только списки хеш-сумм, убедительная просьба с жалобами обращаться напрямую к пользователю. Файлы для обмена на трекере предоставлены пользователями сайта, и администрация не несёт ответственности за их содержание. Просьба не заливать файлы, защищенные авторскими правами, а также файлы нелегального содержания!


    _________________
    [Профиль] [ЛС]
    Показать сообщения:    
    Ответить на тему

    Текущее время: Сегодня, в 04:26

    Часовой пояс: GMT + 2



    Вы не можете начинать темы
    Вы не можете отвечать на сообщения
    Вы не можете редактировать свои сообщения
    Вы не можете удалять свои сообщения
    Вы не можете голосовать в опросах
    Вы не можете прикреплять файлы к сообщениям
    Вы не можете скачивать файлы