BitTorrentTracker PerecTracker.org
BitTorrentTracker PerecTracker.org
    
Регистрация  ·  Вход
 
 · 
Забыли пароль?

  • Голоса / The voices (Маржан Сатрапи / Marjane Satrapi) [2014, США, Германия, триллер, комедия, HDRip] (Janetta) + Sub Rus + Original Eng

    Ответить на тему
     
    Автор Сообщение

    rechyn

    Создавать темы 03-Мар-2015 22:54

           

    [Цитировать]

    Голоса / The voices
    Страна: США, Германия
    Жанр: триллер, комедия
    Год выпуска: 2014
    Продолжительность: 01:43:38
    Перевод: Субтитры Janetta
    Cубтитры: русские
    Оригинальная аудиодорожка: английский
    Режиссер: Маржан Сатрапи / Marjane Satrapi
    В ролях: Райан Рейнольдс, Джемма Артертон, Анна Кендрик, Джеки Уивер, Ади Шанкар
    Описание: Работник с параноидальными наклонностями оказывается замешан в случайной смерти своего коллеги на заводе.
    Сэмпл: https://www.sendspace.com/file/cp55sw
    Качество видео: HDRip
    Формат видео: AVI
    Видео: DivX 5 704x304 23.98fps 892Kbps
    Аудио: MPEG Audio Layer 3 48000Hz stereo 112Kbps
    Формат субтитров: hardsub (неотключаемые)
    Доп. информация о субтитрах: Janetta
    MediaInfo
    General
    Complete name : D:\TORRENTS\Голоса.avi
    Format : AVI
    Format/Info : Audio Video Interleave
    File size : 751 MiB
    Duration : 1h 43mn
    Overall bit rate : 1 014 Kbps
    Video
    ID : 0
    Format : MPEG-4 Visual
    Format profile : Simple@L1
    Format settings, BVOP : No
    Format settings, QPel : No
    Format settings, GMC : No warppoints
    Format settings, Matrix : Default (H.263)
    Codec ID : DX50
    Codec ID/Hint : DivX 5
    Duration : 1h 43mn
    Bit rate : 892 Kbps
    Width : 704 pixels
    Height : 304 pixels
    Display aspect ratio : 2.35:1
    Frame rate : 23.976 fps
    Color space : YUV
    Chroma subsampling : 4:2:0
    Bit depth : 8 bits
    Scan type : Progressive
    Compression mode : Lossy
    Bits/(Pixel*Frame) : 0.174
    Stream size : 662 MiB (88%)
    Writing library : Lavc53.42.0
    Audio
    ID : 1
    Format : MPEG Audio
    Format version : Version 1
    Format profile : Layer 3
    Mode : Joint stereo
    Mode extension : MS Stereo
    Codec ID : 55
    Codec ID/Hint : MP3
    Duration : 1h 43mn
    Source duration : 1h 43mn
    Bit rate mode : Constant
    Bit rate : 112 Kbps
    Channel(s) : 2 channels
    Sampling rate : 48.0 KHz
    Compression mode : Lossy
    Stream size : 83.0 MiB (11%)
    Alignment : Aligned on interleaves
    Interleave, duration : 42 ms (1.00 video frame)
    Writing library : LAME3.99r
    Encoding settings : -m j -V 4 -q 3 -lowpass 15.6 -b 112
    Скриншот c названием фильма
    Скриншоты
    Скачать .torrent

    Скачать торрент-файл бесплатно и на максимальной скорости!

    Как скачивать? · Что такое торрент? · Рейтинг и ограничения

    !ВНИМАНИЕ!
    Сайт не распространяет и не хранит электронные версии произведений, а занимается лишь лишь предоставлением доступа к создаваемому пользователями каталогу ссылок на торрент-файлы, которые содержат только списки хеш-сумм, убедительная просьба с жалобами обращаться напрямую к пользователю. Файлы для обмена на трекере предоставлены пользователями сайта, и администрация не несёт ответственности за их содержание. Просьба не заливать файлы, защищенные авторскими правами, а также файлы нелегального содержания!


    _________________
    [Профиль] [ЛС]
    Показать сообщения:    
    Ответить на тему

    Текущее время: Сегодня, в 03:02

    Часовой пояс: GMT + 2



    Вы не можете начинать темы
    Вы не можете отвечать на сообщения
    Вы не можете редактировать свои сообщения
    Вы не можете удалять свои сообщения
    Вы не можете голосовать в опросах
    Вы не можете прикреплять файлы к сообщениям
    Вы не можете скачивать файлы