BitTorrentTracker PerecTracker.org
BitTorrentTracker PerecTracker.org
    
Регистрация  ·  Вход
 
 · 
Забыли пароль?

  • Бивень / Tusk (Кевин Смит / Kevin Smith) [2014, США, Комедия, Триллер, Ужасы, BDRip-AVC] Dub + Sub Eng

    Ответить на тему
     
    Автор Сообщение

    rechyn

    Создавать темы 03-Мар-2015 22:54

           

    [Цитировать]

    Бивень / Tusk
    Страна: США
    Жанр: Комедия, Триллер, Ужасы
    Год выпуска: 2014
    Продолжительность: 01:44:56-Перевод: Профессиональный (дублированный)
    Cубтитры: английские
    Режиссер: Кевин Смит / Kevin Smith-В ролях: Майкл Паркс, Джастин Лонг, Дженезис Родригез, Хэйли Джоэл Осмент, Джонни Депп, Харли Моренштейн, Ральф Гармен, Дженнифер Швалбах Смит, Харли Куинн Смит, Лили-Роуз Мелоди Депп-Описание: Журналист Уоллес Брайтон уехал брать интервью и исчез навсегда. Его друг вместе с девушкой Уоллеса отправляется на поиски. Поиски приводят пару к полицейскому в отставке, который много лет занимался поиском пропавших людей и который рассказывает им, что есть некая закономерность в пропаже людей. Люди пропадают, а потом находят их обезображенные кости. Полицейский думает, что все это дело рук серийного убийцы. Считая, что Уоллес каким-то образом попал в его руки, троица идет по следу маньяка, даже не представляя себе, что правда, которую им предстоит узнать, настолько ужасна, что в нее просто невозможно поверить.-
    Сэмпл: http://multi-up.com/1032203-Качество видео: BDRip-AVC [исх. Tusk'.2014.Blu-ray CEE 1080p]
    Формат видео: MKV-Видео: AVC,1080x450 (2,40:1), 23,976 fps, 2078 kbps, 0.178 bit/pixel
    Аудио 1: : 48 kHz, AC3 Dolby Digital, 3/2 (L,C,R,l,r) + LFE ch, 448.00 kbps | RUS
    Аудио 2: 48 kHz, AC3 Dolby Digital, 3/2 (L,C,R,l,r) + LFE ch, 448.00 kbps | ENG
    Формат субтитров: softsub (SRT)

    MediaInfo
    General
    Unique ID : 185399929053404734990828279158733980258 (0x8B7ABA3DC69333789C9D956DA6AAC262)
    Complete name : C:\Users\3432\Desktop\фильмы\Бивень.Tusk'.2014.BDRip-AVC.mkv
    Format : Matroska
    Format version : Version 4 / Version 2
    File size : 2.17 GiB
    Duration : 1h 44mn
    Overall bit rate : 2 962 Kbps
    Movie name : Tusk (2014) - HELLYWOOD
    Encoded date : UTC 2015-01-28 17:44:07
    Writing application : mkvmerge v5.9.0 ('On The Loose') built on Dec 15 2012 16:39:58
    Writing library : libebml v1.3.0 + libmatroska v1.4.0
    Video
    ID : 1
    Format : AVC
    Format/Info : Advanced Video Codec
    Format profile : High@L4.1
    Format settings, CABAC : Yes
    Format settings, ReFrames : 10 frames
    Codec ID : V_MPEG4/ISO/AVC
    Duration : 1h 44mn
    Bit rate : 2 078 Kbps
    Width : 1 080 pixels
    Height : 450 pixels
    Display aspect ratio : 2.40:1
    Frame rate mode : Constant
    Frame rate : 23.976 fps
    Color space : YUV
    Chroma subsampling : 4:2:0
    Bit depth : 8 bits
    Scan type : Progressive
    Bits/(Pixel*Frame) : 0.178
    Stream size : 1.47 GiB (68%)
    Title : potroks
    Writing library : x264 core 130 r2273 b3065e6
    Encoding settings : cabac=1 / ref=10 / deblock=1:-2:-2 / analyse=0x3:0x133 / me=umh / subme=11 / psy=1 / psy_rd=1.04:0.05 / mixed_ref=1 / me_range=48 / chroma_me=1 / trellis=2 / 8x8dct=1 / cqm=0 / deadzone=21,11 / fast_pskip=0 / chroma_qp_offset=-3 / threads=9 / lookahead_threads=6 / sliced_threads=0 / nr=0 / decimate=0 / interlaced=0 / bluray_compat=0 / constrained_intra=0 / bframes=11 / b_pyramid=2 / b_adapt=2 / b_bias=0 / direct=3 / weightb=1 / open_gop=0 / weightp=2 / keyint=250 / keyint_min=23 / scenecut=40 / intra_refresh=0 / rc_lookahead=60 / rc=2pass / mbtree=0 / bitrate=2078 / ratetol=1.0 / qcomp=0.70 / qpmin=0 / qpmax=69 / qpstep=4 / cplxblur=20.0 / qblur=0.5 / vbv_maxrate=50000 / vbv_bufsize=62500 / nal_hrd=none / ip_ratio=1.35 / pb_ratio=1.25 / aq=1:0.80
    Language : English
    Default : Yes
    Forced : No
    Audio #1
    ID : 2
    Format : AC-3
    Format/Info : Audio Coding 3
    Mode extension : CM (complete main)
    Format settings, Endianness : Big
    Codec ID : A_AC3
    Duration : 1h 44mn
    Bit rate mode : Constant
    Bit rate : 448 Kbps
    Channel(s) : 6 channels
    Channel positions : Front: L C R, Side: L R, LFE
    Sampling rate : 48.0 KHz
    Bit depth : 16 bits
    Compression mode : Lossy
    Delay relative to video : 6s 800ms
    Stream size : 336 MiB (15%)
    Title : Dub | DD 5.1 @ 448 kbps
    Language : Russian
    Default : Yes
    Forced : Yes
    Audio #2
    ID : 3
    Format : AC-3
    Format/Info : Audio Coding 3
    Mode extension : CM (complete main)
    Format settings, Endianness : Big
    Codec ID : A_AC3
    Duration : 1h 44mn
    Bit rate mode : Constant
    Bit rate : 448 Kbps
    Channel(s) : 6 channels
    Channel positions : Front: L C R, Side: L R, LFE
    Sampling rate : 48.0 KHz
    Bit depth : 16 bits
    Compression mode : Lossy
    Stream size : 336 MiB (15%)
    Title : Original | DD 5.1 @ 448 kbps
    Language : English
    Default : No
    Forced : No
    Text
    ID : 4
    Format : UTF-8
    Codec ID : S_TEXT/UTF8
    Codec ID/Info : UTF-8 Plain Text
    Language : English
    Default : No
    Forced : No
    Menu
    00:00:00.000 : en:1
    00:09:36.000 : en:2
    00:26:20.000 : en:3
    00:37:20.000 : en:4
    00:47:28.000 : en:5
    00:57:00.000 : en:6
    01:08:45.000 : en:7
    01:20:26.000 : en:8
    01:31:42.000 : en:9
    01:35:38.000 : en:10
    Скриншот c названием фильма
    Скриншоты
    Релиз от:
    Скачать .torrent

    Скачать торрент-файл бесплатно и на максимальной скорости!

    Как скачивать? · Что такое торрент? · Рейтинг и ограничения

    !ВНИМАНИЕ!
    Сайт не распространяет и не хранит электронные версии произведений, а занимается лишь лишь предоставлением доступа к создаваемому пользователями каталогу ссылок на торрент-файлы, которые содержат только списки хеш-сумм, убедительная просьба с жалобами обращаться напрямую к пользователю. Файлы для обмена на трекере предоставлены пользователями сайта, и администрация не несёт ответственности за их содержание. Просьба не заливать файлы, защищенные авторскими правами, а также файлы нелегального содержания!


    _________________
    [Профиль] [ЛС]
    Показать сообщения:    
    Ответить на тему

    Текущее время: Сегодня, в 00:26

    Часовой пояс: GMT + 2



    Вы не можете начинать темы
    Вы не можете отвечать на сообщения
    Вы не можете редактировать свои сообщения
    Вы не можете удалять свои сообщения
    Вы не можете голосовать в опросах
    Вы не можете прикреплять файлы к сообщениям
    Вы не можете скачивать файлы