BitTorrentTracker PerecTracker.org
BitTorrentTracker PerecTracker.org
    
Регистрация  ·  Вход
 
 · 
Забыли пароль?

  • Врожденный порок / Inherent Vice (Пол Томас Андерсон / Paul Thomas Anderson) [2014, США, Драма, мелодрама, комедия, криминал, детектив, WEB-DLRip] DVO

    Ответить на тему
     
    Автор Сообщение

    rechyn

    Создавать темы 03-Мар-2015 22:54

           

    [Цитировать]

    --Врожденный порок / Inherent Vice-
    Страна: США
    Жанр: Драма, мелодрама, комедия, криминал, детектив
    Год выпуска: 2014
    Продолжительность: 02:28:40-Перевод: Любительский (двухголосый закадровый) Lord32x и Femida
    Cубтитры: нет-Режиссер: Пол Томас Андерсон / Paul Thomas Anderson-В ролях: Хоакин Феникс, Джош Бролин, Оуэн Уилсон, Кэтрин Уотерстон, Риз Уизерспун, Бенисио Дель Торо, Джена Мэлоун, Майя Рудольф, Мартин Шорт, Джоэнна Ньюсом
    Описание: Эта история переполнена таинственностью. События происходят в знаменитом Лос - Анджелесе в конце шестидесятых годов. Главный герой является талантливым частным детективом, его зовут Ларри Спортелло. Сыщик занимается сложнейшими делами, распутывает тяжелейшие загадки. с легкостью находит жестоких убийц. маньяков и опаснейших грабителей. Однако, он ведет пагубный образ жизни. У него есть одно, но очень вредное пристрастие. которое вот - вот сгубит Ларри - большая тяга к марихуане. В это же время Спортелло разыскивает свою бывшую даму сердца. Однако, вскоре экс - возлюбленная весьма неожиданно пропадает со своим теперешним молодым человеком. Детектив приходит к заключению, что таинственное исчезновение имеет связь с другими делами. которые он расследует в данный момент. Ему предстоит взяться за очередное дело, переполненное подозрительными фактами. Придется заново потрудиться, чтобы разыскать девицу, пропавшую явно не без чужой помощи.-| Сэмпл | IMDB | КиноПоиск |-Качество видео: WEB-DLRip
    Формат видео: AVI
    Видео: 720x384 (1.88:1), 23.976 fps, XviD build 50 ~1715 kbps avg, 0.26 bit/pixel
    Аудио: 48 kHz, AC3 Dolby Digital, 3/2 (L,C,R,l,r) + LFE ch, ~384 kbps

    MediaInfo
    General
    Complete name : E:\Inherent.Vice.2014.WEB-DLRip.Rus.avi
    Format : AVI
    Format/Info : Audio Video Interleave
    Format profile : OpenDML
    File size : 2.19 GiB
    Duration : 2h 28mn
    Overall bit rate : 2 106 Kbps
    Writing application : VirtualDubMod 1.5.10.3 | www.virtualdub-fr.org || (build 2550/release)
    Writing library : VirtualDubMod build 2550/release
    Video
    ID : 0
    Format : MPEG-4 Visual
    Format profile : Advanced Simple@L5
    Format settings, BVOP : 1
    Format settings, QPel : No
    Format settings, GMC : No warppoints
    Format settings, Matrix : Default (H.263)
    Codec ID : XVID
    Codec ID/Hint : XviD
    Duration : 2h 28mn
    Bit rate : 1 711 Kbps
    Width : 720 pixels
    Height : 384 pixels
    Display aspect ratio : 1.875
    Frame rate : 23.976 fps
    Color space : YUV
    Chroma subsampling : 4:2:0
    Bit depth : 8 bits
    Scan type : Progressive
    Compression mode : Lossy
    Bits/(Pixel*Frame) : 0.258
    Stream size : 1.78 GiB (81%)
    Writing library : XviD 1.2.1 (UTC 2008-12-04)
    Audio
    ID : 1
    Format : AC-3
    Format/Info : Audio Coding 3
    Mode extension : CM (complete main)
    Codec ID : 2000
    Duration : 2h 28mn
    Bit rate mode : Constant
    Bit rate : 384 Kbps
    Channel(s) : 6 channels
    Channel positions : Front: L C R, Side: L R, LFE
    Sampling rate : 48.0 KHz
    Bit depth : 16 bits
    Compression mode : Lossy
    Stream size : 408 MiB (18%)
    Alignment : Split accross interleaves
    Interleave, duration : 42 ms (1.00 video frame)
    Interleave, preload duration : 500 ms
    Скриншот c названием фильма
    Скриншоты
    Скачать .torrent

    Скачать торрент-файл бесплатно и на максимальной скорости!

    Как скачивать? · Что такое торрент? · Рейтинг и ограничения

    !ВНИМАНИЕ!
    Сайт не распространяет и не хранит электронные версии произведений, а занимается лишь лишь предоставлением доступа к создаваемому пользователями каталогу ссылок на торрент-файлы, которые содержат только списки хеш-сумм, убедительная просьба с жалобами обращаться напрямую к пользователю. Файлы для обмена на трекере предоставлены пользователями сайта, и администрация не несёт ответственности за их содержание. Просьба не заливать файлы, защищенные авторскими правами, а также файлы нелегального содержания!


    _________________
    [Профиль] [ЛС]
    Показать сообщения:    
    Ответить на тему

    Текущее время: Сегодня, в 18:01

    Часовой пояс: GMT + 2



    Вы не можете начинать темы
    Вы не можете отвечать на сообщения
    Вы не можете редактировать свои сообщения
    Вы не можете удалять свои сообщения
    Вы не можете голосовать в опросах
    Вы не можете прикреплять файлы к сообщениям
    Вы не можете скачивать файлы