BitTorrentTracker PerecTracker.org
BitTorrentTracker PerecTracker.org
    
Регистрация  ·  Вход
 
 · 
Забыли пароль?

  • На паузе / Standby (Роб Бурк / Rob Burke, Ронан Бурк / Ronan Burke) [2014, Ирландия, Комедия, мелодрама, WEB-DLRip] MVO

    Ответить на тему
     
    Автор Сообщение

    rechyn

    Создавать темы 03-Мар-2015 22:54

           

    [Цитировать]

    На паузе / Standby
    Страна: Ирландия
    Жанр: Комедия, мелодрама
    Год выпуска: 2014
    Продолжительность: 01:23:06
    Перевод: Профессиональный (многоголосый закадровый)
    Cубтитры: нет
    Оригинальная аудиодорожка: нет
    Режиссер: Роб Бурк, Ронан Бурк / Rob & Ronan Burke
    В ролях: Джессика Паре, Брин Глисон, Стэнли Таунсенд, Франческа Черруо, Йен Ллойд Андерсон, Джон Линн, Тина Келлехер, Ронан Карр, Луиза Харланд, Пол Роу
    Описание: Алану чуть больше двадцати лет, его недавно уволили из банка, и он устраивается работать вместе со своей матерью туристическим консультантом в аэропорту Дублина. Там он сталкивается со своей первой любовью — Элис, которая застряла в аэропорту, ожидая свой рейс до Нью-Йорка. Их с Аланом роман закончился 8 лет назад. Тогда Алан пообещал ей, что однажды приедет в США, но он не сдержал своего обещания, и с тех пор они не разговаривали. Пользуясь случаем, Алан убеждает Элис задержаться в Дублине еще на одну ночь…
    Сэмпл: https://yadi.sk/i/J0osfUoMentVG
    Качество видео: WEB-DLRip
    Формат видео: AVI
    Видео: MPEG-4, 1747 Кбит/сек, 720*304 (2,35:1),в 24,000 кадров/сек,Visual (XviD)(Advanced Simple@L5)
    Аудио: АС-3, 192 Кбит/сек, 48,0 КГц, 16 бит, 2 канала
    MediaInfo
    Общее
    Полное имя : E:\Rutracker-Razdachi\Na.Pauze.2014.P.WEB-DLRip.avi
    Формат : AVI
    Формат/Информация : Audio Video Interleave
    Размер файла : 1,13 Гбайт
    Продолжительность : 1 ч. 23 м.
    Общий поток : 1949 Кбит/сек
    Программа кодирования : VirtualDubMod 1.5.10.2 (build 2540/release)
    Библиотека кодирования : VirtualDubMod build 2540/release
    Видео
    Идентификатор : 0
    Формат : MPEG-4 Visual
    Профиль формата : Advanced Simple@L5
    Параметр BVOP формата : 2
    Параметр QPel формата : Нет
    Параметр GMC формата : Без точки перехода
    Параметр матрицы формата : Default (H.263)
    Режим смешивания : Сжатый битовый поток
    Идентификатор кодека : XVID
    Идентификатор кодека/Подсказка : XviD
    Продолжительность : 1 ч. 23 м.
    Битрейт : 1747 Кбит/сек
    Ширина : 720 пикселей
    Высота : 304 пикселя
    Соотношение сторон : 2,35:1
    Частота кадров : 24,000 кадра/сек
    Цветовое пространство : YUV
    Субдискретизация насыщенности : 4:2:0
    Битовая глубина : 8 бит
    Тип развёртки : Прогрессивная
    Метод сжатия : С потерями
    Бит/(Пиксели*Кадры) : 0.333
    Размер потока : 1,01 Гбайт (90%)
    Библиотека кодирования : XviD 64
    Аудио
    Идентификатор : 1
    Формат : AC-3
    Формат/Информация : Audio Coding 3
    Расширение режима : CM (complete main)
    Параметр Endianness формата : Big
    Идентификатор кодека : 2000
    Продолжительность : 1 ч. 23 м.
    Вид битрейта : Постоянный
    Битрейт : 192 Кбит/сек
    Каналы : 2 канала
    Расположение каналов : Front: L R
    Частота : 48,0 КГц
    Битовая глубина : 16 бит
    Метод сжатия : С потерями
    Размер потока : 114 Мбайт (10%)
    Выравнивание : Разделение по промежуткам
    Продолжительность промежутка : 42 мс. (1,00 видеокадр)
    Время предзагрузки промежутка : 500 мс.
    Скриншот c названием фильма
    Скриншоты
    Скачать .torrent

    Скачать торрент-файл бесплатно и на максимальной скорости!

    Как скачивать? · Что такое торрент? · Рейтинг и ограничения

    !ВНИМАНИЕ!
    Сайт не распространяет и не хранит электронные версии произведений, а занимается лишь лишь предоставлением доступа к создаваемому пользователями каталогу ссылок на торрент-файлы, которые содержат только списки хеш-сумм, убедительная просьба с жалобами обращаться напрямую к пользователю. Файлы для обмена на трекере предоставлены пользователями сайта, и администрация не несёт ответственности за их содержание. Просьба не заливать файлы, защищенные авторскими правами, а также файлы нелегального содержания!


    _________________
    [Профиль] [ЛС]
    Показать сообщения:    
    Ответить на тему

    Текущее время: Сегодня, в 08:12

    Часовой пояс: GMT + 2



    Вы не можете начинать темы
    Вы не можете отвечать на сообщения
    Вы не можете редактировать свои сообщения
    Вы не можете удалять свои сообщения
    Вы не можете голосовать в опросах
    Вы не можете прикреплять файлы к сообщениям
    Вы не можете скачивать файлы