BitTorrentTracker PerecTracker.org
BitTorrentTracker PerecTracker.org
    
Регистрация  ·  Вход
 
 · 
Забыли пароль?

  • Все еще Элис / Still Alice (Ричард Глацер, Уош Уэстмоленд / Richard Glatzer, Wash Westmoreland) [2014, США, Драма, DVDScreener] Sub Rus (platonych) + Original Eng

    Ответить на тему
     
    Автор Сообщение

    rechyn

    Создавать темы 03-Мар-2015 22:53

           

    [Цитировать]

    Все еще Элис / Still Alice
    Страна: США
    Жанр: Драма
    Год выпуска: 2014
    Продолжительность: 1:41
    Перевод: Субтитры platonych
    Cубтитры: русские
    Оригинальная аудиодорожка: английский
    Режиссер: Ричард Глацер, Уош Уэстмоленд / Richard Glatzer, Wash Westmoreland
    В ролях: Джулианна Мур, Алек Болдуин, Кристен Стюарт, Кейт Босворт, Хантер Пэрриш, Виктория Картагена, Эрин Майя Дарк, Шэйн МакРей, Стефан Канкен, Эха Урбсалу
    Описание: Элис Хаулэнд — известный профессор лингвистики. Она счастлива в браке, у нее трое взрослых детей. Но все меняется, когда однажды она начинает забывать слова…
    Сэмпл: http://multi-up.com/1034231
    Качество видео: DVDScreener
    Формат видео: AVI
    Видео: DVDSCR XviD | 720x384 | XviD @ 1 483 Kbps | 1.29 GB
    Аудио: Dolby AC3, 48000Hz, 6ch, 320 kbps
    Формат субтитров: softsub (SRT)
    Доп. информация о субтитрах:
    MediaInfo
    Complete name : Still.Alice.2014.DVDSCR.XviD.AC3-EVO.avi
    Format : AVI
    Format/Info : Audio Video Interleave
    File size : 1.29 GiB
    Duration : 1h 41mn
    Overall bit rate : 1 815 Kbps
    Writing application : VirtualDubMod 1.5.10.2 (build 2542/release)
    Writing library : VirtualDubMod build 2542/release
    Video
    ID : 0
    Format : MPEG-4 Visual
    Format profile : Advanced Simple@L5
    Format settings, BVOP : 2
    Format settings, QPel : No
    Format settings, GMC : No warppoints
    Format settings, Matrix : Default (H.263)
    Muxing mode : Packed bitstream
    Codec ID : XVID
    Codec ID/Hint : XviD
    Duration : 1h 41mn
    Bit rate : 1 483 Kbps
    Width : 720 pixels
    Height : 384 pixels
    Display aspect ratio : 1.85:1
    Frame rate : 29.970 fps
    Color space : YUV
    Chroma subsampling : 4:2:0
    Bit depth : 8 bits
    Scan type : Progressive
    Compression mode : Lossy
    Bits/(Pixel*Frame) : 0.179
    Stream size : 1.05 GiB (82%)
    Writing library : XviD 64
    Audio
    ID : 1
    Format : AC-3
    Format/Info : Audio Coding 3
    Mode extension : CM (complete main)
    Format settings, Endianness : Big
    Codec ID : 2000
    Duration : 1h 41mn
    Bit rate mode : Constant
    Bit rate : 320 Kbps
    Channel(s) : 6 channels
    Channel positions : Front: L C R, Side: L R, LFE
    Sampling rate : 48.0 KHz
    Bit depth : 16 bits
    Compression mode : Lossy
    Stream size : 232 MiB (18%)
    Alignment : Split accross interleaves
    Interleave, duration : 33 ms (1.00 video frame)
    Interleave, preload duration : 500 ms
    Скриншоты
    Пример текста субтитров
    1
    00:00:47,133 --> 00:00:49,166
    Ладно...С днём рождения, мама.
    2
    00:00:49,267 --> 00:00:52,001
    -О, это мне?
    -Потрясающе. Ты не выглядишь на 40...
    3
    00:00:52,033 --> 00:00:52,800
    ещё меньше на 50.
    4
    00:00:52,934 --> 00:00:54,168
    О, Чарли, пожалуйста.
    5
    00:00:54,267 --> 00:00:55,201
    Но спасибо. Я ценю это.
    6
    00:00:55,300 --> 00:00:57,634
    -Можно я открою сейчас?
    -Да, открывай, пожалуйста.
    7
    00:00:57,701 --> 00:00:59,168
    Боже мой.
    8
    00:01:02,734 --> 00:01:04,468
    -Мне так нравиться.
    -Правда
    9
    00:01:04,567 --> 00:01:06,667
    -Хорошо.
    -Это так красиво.
    10
    00:01:06,767 --> 00:01:08,834
    -Ты можешь обменять его, если не подойдёт.
    -О нет, я не собираюсь.
    11
    00:01:08,934 --> 00:01:10,668
    -Мне ужасно нравиться. Ты всегда...
    -Хорошо.
    12
    00:01:10,868 --> 00:01:12,168
    -Прости за опоздание.
    -О, привет.
    13
    00:01:12,267 --> 00:01:16,467
    -Лиза придёт?
    -Нет, мы расстались.
    14
    00:01:16,534 --> 00:01:19,901
    Я заметила, что твой статус изменился на одинок. Так держать.
    15
    00:01:22,033 --> 00:01:24,333
    Я забыл твой подарок. Оставил в шкафчике.
    16
    00:01:24,467 --> 00:01:26,234
    Ничего. Надеюсь, ты не слишком много потратил.
    17
    00:01:26,300 --> 00:01:28,001
    О нет, не волнуйся, не потратил.
    18
    00:01:28,868 --> 00:01:30,068
    Где ты был?
    19
    00:01:30,167 --> 00:01:33,634
    Это был дурдом. Один парень пришёл с шестью колотыми ранами.
    20
    00:01:33,734 --> 00:01:35,134
    Клянусь, кто-то промахнулся мимо его сердца. Серьёзно...
    Скачать .torrent

    Скачать торрент-файл бесплатно и на максимальной скорости!

    Как скачивать? · Что такое торрент? · Рейтинг и ограничения

    !ВНИМАНИЕ!
    Сайт не распространяет и не хранит электронные версии произведений, а занимается лишь лишь предоставлением доступа к создаваемому пользователями каталогу ссылок на торрент-файлы, которые содержат только списки хеш-сумм, убедительная просьба с жалобами обращаться напрямую к пользователю. Файлы для обмена на трекере предоставлены пользователями сайта, и администрация не несёт ответственности за их содержание. Просьба не заливать файлы, защищенные авторскими правами, а также файлы нелегального содержания!


    _________________
    [Профиль] [ЛС]
    Показать сообщения:    
    Ответить на тему

    Текущее время: Сегодня, в 10:43

    Часовой пояс: GMT + 2



    Вы не можете начинать темы
    Вы не можете отвечать на сообщения
    Вы не можете редактировать свои сообщения
    Вы не можете удалять свои сообщения
    Вы не можете голосовать в опросах
    Вы не можете прикреплять файлы к сообщениям
    Вы не можете скачивать файлы